明天记得爱上我[国粤多音轨/简繁英字幕].Will.You.Still.Love.Me.Tomorrow.2013.BluRay.1080p.x265.10bit.2Audio-MiniHD 2.85GB

版主小s 5月前 193

✔资源类型:暂未分类   ✔电影年份:2013   ✔电影地区:台湾   ✔电影分类:剧情

◎标  题 明天记得爱上我
◎译  名 下午茶 / Will You Still Love Me Tomorrow?
◎片  名 明天記得愛上我
◎年  代 2013
◎产  地 中国台湾
◎类  别 剧情 / 同性
◎语  言 汉语普通话 / 粤语
◎上映日期 2013-04-03(中国台湾)
◎IMDb评分 6.7/10 (615人评价)
◎IMDb链接 https://www.imdb.com/title/tt2738050/
◎豆瓣评分 6.5/10 (4832人评价)
◎豆瓣链接 https://movie.douban.com/subject/10864713/
◎片  长 106分钟
◎导  演 陈骏霖 Arvin Chen
◎编  剧 陈骏霖 Arvin Chen
◎演  员 任贤齐 Richie Jen
       柯宇纶 Lawrence Ko
       范晓萱 Mavis Fan
       夏于乔 Kimi Hsia
       石锦航 Chin-Hang Shih
       黄嘉乐 Stephen Ka Lok Wong
       李维维 Vivi Lee
       杨文文 Wen-Wen Yang
       张少怀 Shao-Huai Chang
       陈志明 Alan Chen
       叶星辰 Hsing-Chen Yeh
       李海宇 Hae-woo Lee
       蓝钧天 Gabriel Lan
       小野 Yeh Hsiao
       陈冠廷 Kuan-Ting Chen
       胡定一 Ding-Yi Hu

◎简  介
  台北一个中产家庭,39岁的伟中(任贤齐 饰)在眼镜店上班,有贴心的妻子阿凤(范晓萱 饰)和可爱的儿子。这样的日子已经过了九年,伟中选择完全隐藏起年轻时的他,然而在男人四十的关卡突然出现了一些变化。首先,伟中的妹妹Mandy(夏于乔 饰)在订婚晚宴上和未婚夫分手,这个决定打乱了伟中一家的步调;接着,阿凤因为家庭工作的双重压力开始质疑自己是否真的快乐,进而想用再生个孩子来解决麻烦;而伟中则在重遇同志老友纶纶(柯宇纶 饰)后,发现自己仍渴求真爱,而真爱的机会来自他遇见Thomas(黄嘉乐 饰)的那天。这个香港来的帅气空少到伟中的店里配眼镜,两人一见锺情,可随着关系越亲近,伟中便越挣扎。他知道为这段激情再次出柜后果不堪设想,可是他也不甘心就这样过一辈子......                                       
                                    台湾导演陈骏霖继《一页台北》后与知名监制李烈联手打造充满感情味的轻巧电影《明天记得爱上我》,突...
  1. ##### MediaInfo ######
  2. General
  3. Unique ID                                : 59699980498721652929040609698381581798 (0x2CE9CC4A86C0622C91B67DAC68DC4DE6)
  4. Complete name                            : Will.You.Still.Love.Me.Tomorrow.2013.BluRay.1080p.x265.10bit.2Audio-MiniHD.mkv
  5. Format                                   : Matroska
  6. Format version                           : Version 4
  7. File size                                : 2.85 GiB
  8. Duration                                 : 1 h 45 min
  9. Overall bit rate                         : 3 873 kb/s
  10. Encoded date                             : UTC 2018-03-10 02:33:59
  11. Writing application                      : mkvmerge v20.0.0 ('I Am The Sun') 64-bit
  12. Writing library                          : libebml v1.3.5 + libmatroska v1.4.8
  13. Video
  14. ID                                       : 1
  15. Format                                   : HEVC
  16. Format/Info                              : High Efficiency Video Coding
  17. Format profile                           : Main 10@L4@Main
  18. Codec ID                                 : V_MPEGH/ISO/HEVC
  19. Duration                                 : 1 h 45 min
  20. Bit rate                                 : 2 558 kb/s
  21. Width                                    : 1 920 pixels
  22. Height                                   : 804 pixels
  23. Display aspect ratio                     : 2.40:1
  24. Frame rate mode                          : Constant
  25. Frame rate                               : 24.000 FPS
  26. Color space                              : YUV
  27. Chroma subsampling                       : 4:2:0
  28. Bit depth                                : 10 bits
  29. Bits/(Pixel*Frame)                       : 0.069
  30. Stream size                              : 1.88 GiB (66%)
  31. Writing library                          : x265 2.7+1-2aa737a99f51:[Windows][GCC 7.3.0][64 bit] 10bit
  32. Encoding settings                        : cpuid=533541173503 / frame-threads=3 / numa-pools=8 / wpp / no-pmode / no-pme / no-psnr / no-ssim / log-level=2 / csv / csv-log-level=0 / input-csp=1 / input-res=1920x804 / interlace=0 / total-frames=151618 / level-idc=0 / high-tier=1 / uhd-bd=0 / ref=5 / no-allow-non-conformance / no-repeat-headers / annexb / no-aud / no-hrd / info / hash=0 / no-temporal-layers / no-open-gop / min-keyint=1 / keyint=360 / gop-lookahead=0 / bframes=9 / b-adapt=2 / b-pyramid / bframe-bias=0 / rc-lookahead=60 / lookahead-slices=4 / NTMzNTQ=uuDQuD2mJt9fsCf / scenecut=40 / radl=0 / no-intra-refresh / ctu=32 / min-cu-size=8 / rect / no-amp / max-tu-size=16 / tu-inter-depth=2 / tu-intra-depth=2 / limit-tu=4 / rdoq-level=1 / dynamic-rd=0.00 / ssim-rd / signhide / no-tskip / nr-intra=0 / nr-inter=0 / no-constrained-intra / no-strong-intra-smoothing / max-merge=3 / limit-refs=2 / limit-modes / me=3 / subme=5 / merange=25 / temporal-mvp / weightp / weightb / no-analyze-src-pics / deblock=-1:-1 / no-sao / no-sao-non-deblock / rd=4 / no-early-skip / rskip / no-fast-intra / no-tskip-fast / no-cu-lossless / b-intra / no-splitrd-skip / rdpenalty=1 / psy-rd=0.00 / psy-rdoq=5.00 / no-rd-refine / no-lossless / cbqpoffs=-2 / crqpoffs=-2 / rc=crf / crf=21.0 / qcomp=0.70 / qpstep=4 / stats-write=0 / stats-read=0 / ipratio=1.40 / pbratio=1.30 / aq-mode=1 / aq-strength=0.80 / cutree / zone-count=0 / no-strict-cbr / qg-size=16 / no-rc-grain / qpmax=69 / qpmin=0 / no-const-vbv / sar=0 / overscan=0 / videoformat=5 / range=0 / colorprim=1 / transfer=2 / colormatrix=2 / chromaloc=0 / display-window=0 / max-cll=0,0 / min-luma=0 / max-luma=1023 / log2-max-poc-lsb=8 / vui-timing-info / vui-hrd-info / slices=1 / no-opt-qp-pps / no-opt-ref-list-length-pps / no-multi-pass-opt-rps / scenecut-bias=0.05 / no-opt-cu-delta-qp / no-aq-motion / no-hdr / no-hdr-opt / no-dhdr10-opt / analysis-reuse-level=5 / scale-factor=0 / refine-intra=0 / refine-inter=0 / refine-mv=0 / no-limit-sao / ctu-info=0 / no-lowpass-dct / refine-mv-type=0 / copy-pic=1
  33. Language                                 : Chinese
  34. Default                                  : Yes
  35. Forced                                   : No
  36. Color range                              : Limited
  37. Color primaries                          : BT.709
  38. Audio #1
  39. ID                                       : 2
  40. Format                                   : AC-3
  41. Format/Info                              : Audio Coding 3
  42. Commercial name                          : Dolby Digital
  43. Codec ID                                 : A_AC3
  44. Duration                                 : 1 h 45 min
  45. Bit rate mode                            : Constant
  46. Bit rate                                 : 640 kb/s
  47. Channel(s)                               : 2 channels
  48. Channel layout                           : L R
  49. Sampling rate                            : 48.0 kHz
  50. Frame rate                               : 31.250 FPS (1536 SPF)
  51. Compression mode                         : Lossy
  52. Stream size                              : 482 MiB (17%)
  53. Title                                    : 粤语
  54. Language                                 : Chinese
  55. Service kind                             : Complete Main
  56. Default                                  : Yes
  57. Forced                                   : No
  58. Audio #2
  59. ID                                       : 3
  60. Format                                   : AC-3
  61. Format/Info                              : Audio Coding 3
  62. Commercial name                          : Dolby Digital
  63. Codec ID                                 : A_AC3
  64. Duration                                 : 1 h 45 min
  65. Bit rate mode                            : Constant
  66. Bit rate                                 : 640 kb/s
  67. Channel(s)                               : 6 channels
  68. Channel layout                           : L R C LFE Ls Rs
  69. Sampling rate                            : 48.0 kHz
  70. Frame rate                               : 31.250 FPS (1536 SPF)
  71. Compression mode                         : Lossy
  72. Stream size                              : 482 MiB (17%)
  73. Title                                    : 国语
  74. Language                                 : Chinese
  75. Service kind                             : Complete Main
  76. Default                                  : No
  77. Forced                                   : No
  78. Text #1
  79. ID                                       : 4
  80. Format                                   : PGS
  81. Muxing mode                              : zlib
  82. Codec ID                                 : S_HDMV/PGS
  83. Codec ID/Info                            : Picture based subtitle format used on BDs/HD-DVDs
  84. Duration                                 : 1 h 39 min
  85. Bit rate                                 : 28.0 kb/s
  86. Count of elements                        : 2517
  87. Stream size                              : 20.0 MiB (1%)
  88. Title                                    : 繁体
  89. Language                                 : Chinese
  90. Default                                  : Yes
  91. Forced                                   : No
  92. Text #2
  93. ID                                       : 5
  94. Format                                   : PGS
  95. Muxing mode                              : zlib
  96. Codec ID                                 : S_HDMV/PGS
  97. Codec ID/Info                            : Picture based subtitle format used on BDs/HD-DVDs
  98. Duration                                 : 1 h 39 min
  99. Bit rate                                 : 28.0 kb/s
  100. Count of elements                        : 2517
  101. Stream size                              : 20.0 MiB (1%)
  102. Title                                    : 简体
  103. Language                                 : Chinese
  104. Default                                  : No
  105. Forced                                   : No
  106. Text #3
  107. ID                                       : 6
  108. Format                                   : PGS
  109. Muxing mode                              : zlib
  110. Codec ID                                 : S_HDMV/PGS
  111. Codec ID/Info                            : Picture based subtitle format used on BDs/HD-DVDs
  112. Duration                                 : 1 h 39 min
  113. Bit rate                                 : 28.7 kb/s
  114. Count of elements                        : 2486
  115. Stream size                              : 20.4 MiB (1%)
  116. Title                                    : 英文
  117. Language                                 : English
  118. Default                                  : No
  119. Forced                                   : No
  120. Menu
  121. 00:00:00.000                             : en:Chapter 01
  122. 00:07:57.833                             : en:Chapter 02
  123. 00:15:36.875                             : en:Chapter 03
  124. 00:25:51.875                             : en:Chapter 04
  125. 00:35:46.791                             : en:Chapter 05
  126. 00:44:47.250                             : en:Chapter 06
  127. 00:55:33.958                             : en:Chapter 07
  128. 01:01:00.708                             : en:Chapter 08
  129. 01:09:43.041                             : en:Chapter 09
  130. 01:19:11.208                             : en:Chapter 10
  131. 01:26:42.416                             : en:Chapter 11
  132. 01:34:20.166                             : en:Chapter 12





此处一般会放置磁力链或种子下载链接,不过此链接需要注册会员才能看到,点击“立即注册”
磁力链下载【下载链接仅对注册会员开放,登陆后可见】
BT9527电影天堂 1、BT9527电影天堂提供的BT文件均来源于互联网抓取,只供网友学习交流、技术提升使用。
2、我们遵守BitTorrent点对点协议原则,任何版权问题请联系原资源发布商,我们不处理任何版权纠纷,谢谢!如有争议请联系邮箱:BT9527#hotmail.com(#换成@)
3、如果您发现某页面或地址有错误,请联系站长邮箱BT9527#hotmail.com(#换成@),我们会尽快处理。您的热心是对BT9527电影天堂最大的支持。
4、本站建议去正规影院观看电影以支持电影行业发展。
最新回复 (0)

你可以在 登录 or 注册 后,对此帖发表评论!

返回
发新帖