最佳拍档3:女皇密令[国粤多音轨/繁英字幕].Aces.Go.Places.III.1984.BluRay.1080p.x265.10bit.2Audio-MiniHD 3.10GB

版主小s 5月前 199

✔资源类型:暂未分类   ✔电影年份:更 早   ✔电影地区:香港   ✔电影分类:喜剧

◎标  题 最佳拍档3:女皇密令
◎译  名 Aces Go Places III: Our Man from Bond Street
◎片  名 最佳拍檔3:女皇密令
◎年  代 1984
◎产  地 中国香港
◎类  别 喜剧 / 动作
◎语  言 粤语
◎上映日期 1984-01-26
◎IMDb评分 5.8/10 (920人评价)
◎IMDb链接 https://www.imdb.com/title/tt0088457/
◎豆瓣评分 7.3/10 (13356人评价)
◎豆瓣链接 https://movie.douban.com/subject/1305662/
◎片  长 UK: 87 分钟
◎导  演 徐克 Hark Tsui
◎编  剧 黄百鸣 Raymond Wong
◎演  员 许冠杰 Samuel Hui
       麦嘉 Karl Maka
       张艾嘉 Sylvia Chang
       许冠英 Ricky Hui
       曹达华 Tat-wah Cho
       岑建勋 John Sham
       徐克 Hark Tsui
       让·梅尔桑特 Jean Mersant
       李鹏飞 Pang-Fei Lee
       西瓜刨 Gwa-pau Sai
       理查德·基尔 Richard Kiel
       皮特·格拉维斯 Peter Graves
       曹查理 Charlie Cho
       王嘉明 Cyrus Wong
       Sandâ Sugiyama Sandâ Sugiyama
       卢冠廷 Lowell Lo
       石天 Dean Shek
       麦嘉 Karl Maka
       Lynsey De Paul Lynsey De Paul
       黄仲标 Bill Wong
       陈俊杰 Henry Chan
       梁志兴 Chi-Hing Leung
       黄锐民 Oliver Wong
       施南生 Nansun Shi

◎标  签 喜剧 / 香港 / 香港电影 / 许冠杰 / 徐克 / 动作 / 张艾嘉 / 麦嘉

◎简  介
  黑猫(许冠杰 饰)身手敏捷,小有名气。一次,他在巴黎时忽然遭到不明身份的女杀手袭击,当他和对手一路打斗来到铁塔时,伏击在此的大钢牙和刚帽突然出击。措手不及的黑猫眼看性命不保,纵身跳下了塞纳河。                                    
                                当黑猫醒来的时候,一名自称占士邦的应该特工人员告诉他这是女皇对他的考验,现在他已通过考验,可以正式接受女皇的密令。信以为真的黑猫欣然应允,返港为女皇盗窃一枚极为贵重的宝石。当黑猫费尽九牛二虎之力完成任务后,发现事实并非如此。
  1. ##### MediaInfo ######
  2. General
  3. Unique ID                                : 184058792551092810137976939577600072923 (0x8A786F1B4AB7991956EF0C8CD8A35CDB)
  4. Complete name                            : Aces.Go.Places.III.1984.BluRay.1080p.x265.10bit.2Audio-MiniHD.mkv
  5. Format                                   : Matroska
  6. Format version                           : Version 4
  7. File size                                : 3.10 GiB
  8. Duration                                 : 1 h 35 min
  9. Overall bit rate                         : 4 633 kb/s
  10. Encoded date                             : UTC 2018-02-22 13:56:39
  11. Writing application                      : mkvmerge v20.0.0 ('I Am The Sun') 64-bit
  12. Writing library                          : libebml v1.3.5 + libmatroska v1.4.8
  13. Video
  14. ID                                       : 1
  15. Format                                   : HEVC
  16. Format/Info                              : High Efficiency Video Coding
  17. Format profile                           : Main 10@L4@Main
  18. Codec ID                                 : V_MPEGH/ISO/HEVC
  19. Duration                                 : 1 h 35 min
  20. Bit rate                                 : 3 261 kb/s
  21. Width                                    : 1 920 pixels
  22. Height                                   : 802 pixels
  23. Display aspect ratio                     : 2.40:1
  24. Frame rate mode                          : Constant
  25. Frame rate                               : 23.976 (24000/1001/53354) FPS
  26. Color space                              : YUV
  27. Chroma subsampling                       : 4:2:0
  28. Bit depth                                : 10 bits
  29. Bits/(Pixel*Frame)                       : 0.088
  30. Stream size                              : 2.18 GiB (70%)
  31. Writing library                          : x265 2.6+31-3712d13c09bf:[Windows][MSVC 1912][64 bit] 10bit
  32. Encoding settings                        : cpuid=533541173503 / frame-threads=3 / numa-pools=8 / wpp / no-pmode / no-pme / no-psnr / no-ssim / log-level=2 / csv / csv-log-level=0 / input-csp=1 / input-res=1920x802 / interlace=0 / total-frames=137646 / level-idc=0 / high-tier=1 / uhd-bd=0 / ref=5 / no-allow-non-conformance / no-repeat-headers / annexb / no-aud / no-hrd / info / hash=0 / no-temporal-layers / no-open-gop / min-keyint=1 / keyint=360 / gop-lookahead=0 / bframes=9 / b-adapt=2 / b-pyramid / bframe-bias=0 / rc-lookahead=60 / lookahead-slices=4 / NTMzNTQ=uuDQuD2mJt9fsCf / scenecut=40 / radl=0 / no-intra-refresh / ctu=32 / min-cu-size=8 / rect / no-amp / max-tu-size=16 / tu-inter-depth=2 / tu-intra-depth=2 / limit-tu=4 / rdoq-level=1 / dynamic-rd=0.00 / ssim-rd / signhide / no-tskip / nr-intra=0 / nr-inter=0 / no-constrained-intra / no-strong-intra-smoothing / max-merge=3 / limit-refs=2 / limit-modes / me=3 / subme=5 / merange=25 / temporal-mvp / weightp / weightb / no-analyze-src-pics / deblock=-1:-1 / no-sao / no-sao-non-deblock / rd=4 / no-early-skip / rskip / no-fast-intra / no-tskip-fast / no-cu-lossless / b-intra / no-splitrd-skip / rdpenalty=1 / psy-rd=0.00 / psy-rdoq=5.00 / no-rd-refine / no-lossless / cbqpoffs=-2 / crqpoffs=-2 / rc=crf / crf=19.0 / qcomp=0.70 / qpstep=4 / stats-write=0 / stats-read=0 / ipratio=1.40 / pbratio=1.30 / aq-mode=2 / aq-strength=0.80 / cutree / zone-count=0 / no-strict-cbr / qg-size=16 / no-rc-grain / qpmax=69 / qpmin=0 / no-const-vbv / sar=0 / overscan=0 / videoformat=5 / range=0 / colorprim=1 / transfer=2 / colormatrix=2 / chromaloc=0 / display-window=0 / max-cll=0,0 / min-luma=0 / max-luma=1023 / log2-max-poc-lsb=8 / vui-timing-info / vui-hrd-info / slices=1 / no-opt-qp-pps / no-opt-ref-list-length-pps / no-multi-pass-opt-rps / scenecut-bias=0.05 / no-opt-cu-delta-qp / no-aq-motion / no-hdr / no-hdr-opt / no-dhdr10-opt / analysis-reuse-level=5 / scale-factor=0 / refine-intra=0 / refine-inter=0 / refine-mv=0 / no-limit-sao / ctu-info=0 / no-lowpass-dct / refine-mv-type=0 / copy-pic=1
  33. Language                                 : Chinese
  34. Default                                  : Yes
  35. Forced                                   : No
  36. Color range                              : Limited
  37. Color primaries                          : BT.709
  38. Audio #1
  39. ID                                       : 2
  40. Format                                   : AC-3
  41. Format/Info                              : Audio Coding 3
  42. Commercial name                          : Dolby Digital
  43. Codec ID                                 : A_AC3
  44. Duration                                 : 1 h 35 min
  45. Bit rate mode                            : Constant
  46. Bit rate                                 : 640 kb/s
  47. Channel(s)                               : 6 channels
  48. Channel layout                           : L R C LFE Ls Rs
  49. Sampling rate                            : 48.0 kHz
  50. Frame rate                               : 31.250 FPS (1536 SPF)
  51. Compression mode                         : Lossy
  52. Stream size                              : 438 MiB (14%)
  53. Title                                    : 粤语
  54. Language                                 : Chinese
  55. Service kind                             : Complete Main
  56. Default                                  : Yes
  57. Forced                                   : No
  58. Audio #2
  59. ID                                       : 3
  60. Format                                   : AC-3
  61. Format/Info                              : Audio Coding 3
  62. Commercial name                          : Dolby Digital
  63. Codec ID                                 : A_AC3
  64. Duration                                 : 1 h 35 min
  65. Bit rate mode                            : Constant
  66. Bit rate                                 : 640 kb/s
  67. Channel(s)                               : 6 channels
  68. Channel layout                           : L R C LFE Ls Rs
  69. Sampling rate                            : 48.0 kHz
  70. Frame rate                               : 31.250 FPS (1536 SPF)
  71. Compression mode                         : Lossy
  72. Stream size                              : 438 MiB (14%)
  73. Title                                    : 国语
  74. Language                                 : Chinese
  75. Service kind                             : Complete Main
  76. Default                                  : No
  77. Forced                                   : No
  78. Text #1
  79. ID                                       : 4
  80. Format                                   : PGS
  81. Muxing mode                              : zlib
  82. Codec ID                                 : S_HDMV/PGS
  83. Codec ID/Info                            : Picture based subtitle format used on BDs/HD-DVDs
  84. Title                                    : 繁体
  85. Language                                 : Chinese
  86. Default                                  : Yes
  87. Forced                                   : No
  88. Text #2
  89. ID                                       : 5
  90. Format                                   : PGS
  91. Muxing mode                              : zlib
  92. Codec ID                                 : S_HDMV/PGS
  93. Codec ID/Info                            : Picture based subtitle format used on BDs/HD-DVDs
  94. Title                                    : 英文
  95. Language                                 : English
  96. Default                                  : No
  97. Forced                                   : No
  98. Menu
  99. 00:00:00.000                             : en:Chapter 01
  100. 00:03:26.748                             : en:Chapter 02
  101. 00:08:04.692                             : en:Chapter 03
  102. 00:12:02.888                             : en:Chapter 04
  103. 00:20:19.593                             : en:Chapter 05
  104. 00:25:01.791                             : en:Chapter 06
  105. 00:27:39.491                             : en:Chapter 07
  106. 00:31:49.699                             : en:Chapter 08
  107. 00:35:29.168                             : en:Chapter 09
  108. 00:41:10.551                             : en:Chapter 10
  109. 00:49:12.658                             : en:Chapter 11
  110. 00:53:20.238                             : en:Chapter 12
  111. 00:57:00.875                             : en:Chapter 13
  112. 01:01:45.159                             : en:Chapter 14
  113. 01:04:35.788                             : en:Chapter 15
  114. 01:07:48.856                             : en:Chapter 16
  115. 01:11:11.392                             : en:Chapter 17
  116. 01:15:53.840                             : en:Chapter 18
  117. 01:20:26.696                             : en:Chapter 19
  118. 01:27:10.308                             : en:Chapter 20
  119. 01:35:39.900                             : en:Chapter 21





此处一般会放置磁力链或种子下载链接,不过此链接需要注册会员才能看到,点击“立即注册”
磁力链下载【下载链接仅对注册会员开放,登陆后可见】
BT9527电影天堂 1、BT9527电影天堂提供的BT文件均来源于互联网抓取,只供网友学习交流、技术提升使用。
2、我们遵守BitTorrent点对点协议原则,任何版权问题请联系原资源发布商,我们不处理任何版权纠纷,谢谢!如有争议请联系邮箱:BT9527#hotmail.com(#换成@)
3、如果您发现某页面或地址有错误,请联系站长邮箱BT9527#hotmail.com(#换成@),我们会尽快处理。您的热心是对BT9527电影天堂最大的支持。
4、本站建议去正规影院观看电影以支持电影行业发展。
最新回复 (0)

你可以在 登录 or 注册 后,对此帖发表评论!

返回
发新帖