狙击电话亭[国英多音轨/简繁英字幕].Phone.Booth.2002.BluRay.1080p.x265.10bit.2Audios-MiniHD 4.30GB

版主小s 5月前 184

✔资源类型:暂未分类   ✔电影年份:更 早   ✔电影地区:欧美   ✔电影分类:惊悚

◎标  题 狙击电话亭
◎译  名 来电险事 / 绝命铃声 / 电话亭
◎片  名 Phone Booth
◎年  代 2002
◎产  地 美国
◎类  别 惊悚 / 犯罪
◎语  言 英语 / 斯瓦希里语
◎上映日期 2002-09-10(多伦多电影节) / 2003-04-04(美国)
◎IMDb评分 7.1/10 (265491人评价)
◎IMDb链接 https://www.imdb.com/title/tt0183649/
◎豆瓣评分 7.9/10 (184900人评价)
◎豆瓣链接 https://movie.douban.com/subject/1303246/
◎片  长 81分钟
◎导  演 乔·舒马赫 Joel Schumacher
◎编  剧 拉里·柯恩 Larry Cohen
◎演  员 科林·法瑞尔 Colin Farrell
       基弗·萨瑟兰 Kiefer Sutherland
       福里斯特·惠特克 Forest Whitaker
       拉达·米切尔 Radha Mitchell
       凯蒂·霍尔姆斯 Katie Holmes
       保拉·杰·帕克 Paula Jai Parker
       蒂娅·德克萨达 Tia Texada
       约翰·伊诺斯三世 John Enos III
       理查德·琼斯 Richard T. Jones
       基斯·诺布斯 Keith Nobbs
       乔什·帕斯 Josh Pais
       约戈·康斯坦丁 Yorgo Constantine
       科林·帕特里克·林奇 Colin Patrick Lynch
       Troy Gilbert Troy Gilbert
       塞思·威廉·迈耶 Seth William Meier
       斯韦特兰娜·埃弗里莫娃 Svetlana Efremova
       多米尼克·隆巴多兹 Domenick Lombardozzi
       麦丽·弗拉纳甘 Maile Flanagan
       胡里奥·奥斯卡·门乔索 Julio Oscar Mechoso
       Dean Cochran Dean Cochran
       托利·基特尔斯 Tory Kittles
       Bruce Roberts Bruce Roberts
       玛丽·兰德尔 Mary Randle
       Phil Paul Call Phil Paul Call
       米娅·柯泰特 Mia Cottet
       本·福斯特 Ben Foster
        Enrique Hernandez
       Jared Huckaby Jared Huckaby
       Chris Huvane Chris Huvane
       Arian Waring Ash Arian Waring Ash
       乔什·卡尔夫 Joshua Kalef
       詹姆斯·马迪欧 James Madio
       丹尼尔·曼德尔 Daniel Mandehr
       哈里·格雷格森-威廉姆斯 Harry Gregson-Williams
       约戈·康斯坦丁 Yorgo Constantine

◎简  介
  公关人员斯图(柯林•法瑞尔 Colin Farrell 饰)在外面瞒着妻子有一个秘密情人,为了躲避妻子的电话单检查,这天他又偷偷溜到街上公用电话亭准备打电话约会情人。不料,在他进入电话亭的一刹那,电话铃响了。虽然不知是谁打的电话,出于习惯,斯图拿起了听筒。                                    
                                阴沉单调的男 声随即响起,警告斯图不要挂掉,否则将血溅街头!斯图当然没有理会这恶作剧般的警告,正要走出电话亭。这时,一声枪响,一名路人已经倒在地上。斯图吓得魂飞魄散,动也不敢动。                                    
                                警察闻讯而来,然而他们对斯图的解释怎么也不相信,斯图还成了枪击案的主要嫌疑人。一时间,全城轰动,斯图的妻子和情人都闻讯赶来了……
  1. ##### MediaInfo ######
  2. General
  3. Unique ID                                : 38415005819092484850308028186090953924 (0x1CE676043B790B540F024004D94A5CC4)
  4. Complete name                            : Phone.Booth.2002.BluRay.1080p.x265.10bit.2Audios-MiniHD.mkv
  5. Format                                   : Matroska
  6. Format version                           : Version 4
  7. File size                                : 4.29 GiB
  8. Duration                                 : 1 h 26 min
  9. Overall bit rate                         : 7 068 kb/s
  10. Encoded date                             : UTC 2018-03-12 10:02:14
  11. Writing application                      : mkvmerge v21.0.0 ('Tardigrades Will Inherit The Earth') 64-bit
  12. Writing library                          : libebml v1.3.5 + libmatroska v1.4.8
  13. Video
  14. ID                                       : 1
  15. Format                                   : HEVC
  16. Format/Info                              : High Efficiency Video Coding
  17. Format profile                           : Main 10@L4@High
  18. Codec ID                                 : V_MPEGH/ISO/HEVC
  19. Duration                                 : 1 h 21 min
  20. Bit rate                                 : 6 700 kb/s
  21. Width                                    : 1 920 pixels
  22. Height                                   : 820 pixels
  23. Display aspect ratio                     : 2.35:1
  24. Frame rate mode                          : Constant
  25. Frame rate                               : 23.976 (24000/1001/53354) FPS
  26. Color space                              : YUV
  27. Chroma subsampling                       : 4:2:0
  28. Bit depth                                : 10 bits
  29. Bits/(Pixel*Frame)                       : 0.178
  30. Stream size                              : 3.79 GiB (88%)
  31. Title                                    : 视频
  32. Default                                  : Yes
  33. Forced                                   : No
  34. Color range                              : Limited
  35. Color primaries                          : BT.709
  36. Transfer characteristics                 : BT.709
  37. Matrix coefficients                      : BT.709
  38. Audio #1
  39. ID                                       : 2
  40. Format                                   : AC-3
  41. Format/Info                              : Audio Coding 3
  42. Commercial name                          : Dolby Digital
  43. Codec ID                                 : A_AC3
  44. Duration                                 : 1 h 21 min
  45. Bit rate mode                            : Constant
  46. Bit rate                                 : 640 kb/s
  47. Channel(s)                               : 6 channels
  48. Channel layout                           : L R C LFE Ls Rs
  49. Sampling rate                            : 48.0 kHz
  50. Frame rate                               : 31.250 FPS (1536 SPF)
  51. Compression mode                         : Lossy
  52. Stream size                              : 371 MiB (8%)
  53. Title                                    : 英语AC3-5.1@640KBPS
  54. Language                                 : English
  55. Service kind                             : Complete Main
  56. Default                                  : Yes
  57. Forced                                   : No
  58. Audio #2
  59. ID                                       : 3
  60. Format                                   : AC-3
  61. Format/Info                              : Audio Coding 3
  62. Commercial name                          : Dolby Digital
  63. Codec ID                                 : A_AC3
  64. Duration                                 : 1 h 21 min
  65. Bit rate mode                            : Constant
  66. Bit rate                                 : 192 kb/s
  67. Channel(s)                               : 2 channels
  68. Channel layout                           : L R
  69. Sampling rate                            : 48.0 kHz
  70. Frame rate                               : 31.250 FPS (1536 SPF)
  71. Compression mode                         : Lossy
  72. Stream size                              : 111 MiB (3%)
  73. Title                                    : 国语AC3-2.0@192KBPS
  74. Language                                 : Chinese
  75. Service kind                             : Complete Main
  76. Default                                  : No
  77. Forced                                   : No
  78. Text #1
  79. ID                                       : 4
  80. Format                                   : PGS
  81. Muxing mode                              : zlib
  82. Codec ID                                 : S_HDMV/PGS
  83. Codec ID/Info                            : Picture based subtitle format used on BDs/HD-DVDs
  84. Duration                                 : 1 h 24 min
  85. Bit rate                                 : 36.5 kb/s
  86. Count of elements                        : 2516
  87. Stream size                              : 22.0 MiB (1%)
  88. Title                                    : 简中
  89. Language                                 : Chinese
  90. Default                                  : Yes
  91. Forced                                   : No
  92. Text #2
  93. ID                                       : 5
  94. Format                                   : PGS
  95. Muxing mode                              : zlib
  96. Codec ID                                 : S_HDMV/PGS
  97. Codec ID/Info                            : Picture based subtitle format used on BDs/HD-DVDs
  98. Duration                                 : 1 h 24 min
  99. Bit rate                                 : 38.1 kb/s
  100. Count of elements                        : 2516
  101. Stream size                              : 23.0 MiB (1%)
  102. Title                                    : 繁中
  103. Language                                 : Chinese
  104. Default                                  : No
  105. Forced                                   : No
  106. Text #3
  107. ID                                       : 6
  108. Format                                   : PGS
  109. Muxing mode                              : zlib
  110. Codec ID                                 : S_HDMV/PGS
  111. Codec ID/Info                            : Picture based subtitle format used on BDs/HD-DVDs
  112. Duration                                 : 1 h 12 min
  113. Bit rate                                 : 103 kb/s
  114. Count of elements                        : 2515
  115. Stream size                              : 53.4 MiB (1%)
  116. Title                                    : 英语
  117. Language                                 : English
  118. Default                                  : No
  119. Forced                                   : No
  120. Menu
  121. 00:00:00.000                             : en:Chapter 01
  122. 00:03:42.972                             : en:Chapter 02
  123. 00:08:58.454                             : en:Chapter 03
  124. 00:10:20.369                             : en:Chapter 04
  125. 00:11:45.955                             : en:Chapter 05
  126. 00:14:05.594                             : en:Chapter 06
  127. 00:17:34.386                             : en:Chapter 07
  128. 00:21:19.319                             : en:Chapter 08
  129. 00:23:22.359                             : en:Chapter 09
  130. 00:25:01.416                             : en:Chapter 10
  131. 00:29:00.947                             : en:Chapter 11
  132. 00:32:00.627                             : en:Chapter 12
  133. 00:34:57.762                             : en:Chapter 13
  134. 00:39:19.440                             : en:Chapter 14
  135. 00:43:10.296                             : en:Chapter 15
  136. 00:45:54.501                             : en:Chapter 16
  137. 00:47:50.534                             : en:Chapter 17
  138. 00:51:44.059                             : en:Chapter 18
  139. 00:54:09.621                             : en:Chapter 19
  140. 00:56:35.767                             : en:Chapter 20
  141. 00:58:09.486                             : en:Chapter 21
  142. 01:00:58.237                             : en:Chapter 22
  143. 01:03:53.204                             : en:Chapter 23
  144. 01:08:50.417                             : en:Chapter 24
  145. 01:11:06.095                             : en:Chapter 25
  146. 01:12:30.554                             : en:Chapter 26
  147. 01:14:06.066                             : en:Chapter 27
  148. 01:15:02.456                             : en:Chapter 28
  149. 01:21:00.105                             : en:Chapter 29





此处一般会放置磁力链或种子下载链接,不过此链接需要注册会员才能看到,点击“立即注册”
磁力链下载【下载链接仅对注册会员开放,登陆后可见】
BT9527电影天堂 1、BT9527电影天堂提供的BT文件均来源于互联网抓取,只供网友学习交流、技术提升使用。
2、我们遵守BitTorrent点对点协议原则,任何版权问题请联系原资源发布商,我们不处理任何版权纠纷,谢谢!如有争议请联系邮箱:BT9527#hotmail.com(#换成@)
3、如果您发现某页面或地址有错误,请联系站长邮箱BT9527#hotmail.com(#换成@),我们会尽快处理。您的热心是对BT9527电影天堂最大的支持。
4、本站建议去正规影院观看电影以支持电影行业发展。
最新回复 (0)

你可以在 登录 or 注册 后,对此帖发表评论!

返回
发新帖