彗星来的那一夜[简繁字幕].Coherence.2013.BluRay.1080p.x265.10bit-MiniHD 2.62GB

版主小s 5月前 197

✔资源类型:暂未分类   ✔电影年份:2013   ✔电影地区:欧美   ✔电影分类:科幻

◎标  题 彗星来的那一夜
◎译  名 相干性 / 相干效应
◎片  名 Coherence
◎年  代 2013
◎产  地 美国 / 英国
◎类  别 科幻 / 悬疑 / 惊悚
◎语  言 英语
◎上映日期 2013-09-19(奇幻电影节) / 2014-08-06(美国)
◎IMDb评分 7.2/10 (119769人评价)
◎IMDb链接 https://www.imdb.com/title/tt2866360/
◎豆瓣评分 8.5/10 (467522人评价)
◎豆瓣链接 https://movie.douban.com/subject/25807345/
◎片  长 89分钟
◎导  演 詹姆斯·沃德·布柯特 James Ward Byrkit
◎编  剧 詹姆斯·沃德·布柯特 James Ward Byrkit
       亚历克斯·马努吉安 Alex Manugian
◎演  员 艾米丽·芭尔多尼 Emily Baldoni
       莫瑞·史特林 Maury Sterling
       尼古拉斯·布兰登 Nicholas Brendon
       劳伦·斯卡法莉娅 Lorene Scafaria
       伊丽莎白·格瑞斯 Elizabeth Gracen
       雨果·阿姆斯特朗 Hugo Armstrong
       亚历克斯·马努吉安 Alex Manugian
       劳伦·马赫 Lauren Maher
       莱内·鲍萨格尔 Lene Bausager
       詹姆斯·沃德·布柯特 James Ward Byrkit
       亚历克斯·马努吉安 Alex Manugian
       克里斯汀·奥尔恩·戴鲁德 Kristin Øhrn Dyrud
       尼克·赛德勒 Nic Sadler
       詹姆斯·沃德·布柯特 James Ward Byrkit
       诺玛·李 Norma Lee
       维多利亚·伍德 Victoria Wood
       乔伊·萨帕塔 Joy Zapata
       杰西·波默罗伊 Jesse Pomeroy
       文森特·吉塞蒂 Vincent Guisetti

◎标  签 科幻 / 悬疑 / 烧脑 / 平行世界 / 时空 / 美国 / 惊悚 / 人性

◎简  介
  在一个静得有些诡异阴森的夜晚,年轻女子艾米丽(艾米丽·芭尔多尼 Emily Baldoni 饰)驱车来到朋友家参加聚会。此前她一边开车一边和男友打电话,然而通话突然中断,她的手机屏也莫名其妙出现裂痕。这一事件让艾米丽的心中升起隐隐不安,因为当晚一颗彗星刚好接近地球,一个 很久之前听过的传说使她对彗星的到来有着不祥的预感。稍后,朋友们落座,大家彼此交谈,叙说近况,虽然言语中有着许多莫名其妙、蹊跷反常的线索,然而均被一带而过。突然间,灯光尽灭。当光明重新来临时,众人发现附近只有一户人家还在亮灯,而亮灯人家里坐着的竟是……                                    
                                本片荣获2014年阿姆斯特丹奇幻电影节黑郁金香奖。
  1. ##### MediaInfo ######
  2. General
  3. Unique ID                                : 104158805954856462463159369205837769970 (0x4E5C419F3C921D8223D2494870B4ACF2)
  4. Complete name                            : Coherence.2013.BluRay.1080p.x265.10bit-MiniHD.mkv
  5. Format                                   : Matroska
  6. Format version                           : Version 4
  7. File size                                : 2.62 GiB
  8. Duration                                 : 1 h 27 min
  9. Overall bit rate                         : 4 263 kb/s
  10. Encoded date                             : UTC 2018-02-02 00:37:23
  11. Writing application                      : mkvmerge v20.0.0 ('I Am The Sun') 64-bit
  12. Writing library                          : libebml v1.3.5 + libmatroska v1.4.8
  13. Video
  14. ID                                       : 1
  15. Format                                   : HEVC
  16. Format/Info                              : High Efficiency Video Coding
  17. Format profile                           : Main 10@L4@High
  18. Codec ID                                 : V_MPEGH/ISO/HEVC
  19. Duration                                 : 1 h 27 min
  20. Bit rate                                 : 3 477 kb/s
  21. Width                                    : 1 920 pixels
  22. Height                                   : 824 pixels
  23. Display aspect ratio                     : 2.35:1
  24. Frame rate mode                          : Constant
  25. Frame rate                               : 24.000 FPS
  26. Color space                              : YUV
  27. Chroma subsampling                       : 4:2:0
  28. Bit depth                                : 10 bits
  29. Bits/(Pixel*Frame)                       : 0.092
  30. Stream size                              : 2.13 GiB (82%)
  31. Title                                    : 视频
  32. Default                                  : Yes
  33. Forced                                   : No
  34. Color range                              : Limited
  35. Color primaries                          : BT.709
  36. Audio
  37. ID                                       : 2
  38. Format                                   : AC-3
  39. Format/Info                              : Audio Coding 3
  40. Commercial name                          : Dolby Digital
  41. Codec ID                                 : A_AC3
  42. Duration                                 : 1 h 27 min
  43. Bit rate mode                            : Constant
  44. Bit rate                                 : 640 kb/s
  45. Channel(s)                               : 6 channels
  46. Channel layout                           : L R C LFE Ls Rs
  47. Sampling rate                            : 48.0 kHz
  48. Frame rate                               : 31.250 FPS (1536 SPF)
  49. Compression mode                         : Lossy
  50. Stream size                              : 402 MiB (15%)
  51. Title                                    : 英语
  52. Language                                 : English
  53. Service kind                             : Complete Main
  54. Default                                  : Yes
  55. Forced                                   : No
  56. Text #1
  57. ID                                       : 3
  58. Format                                   : PGS
  59. Muxing mode                              : zlib
  60. Codec ID                                 : S_HDMV/PGS
  61. Codec ID/Info                            : Picture based subtitle format used on BDs/HD-DVDs
  62. Duration                                 : 1 h 27 min
  63. Bit rate                                 : 45.5 kb/s
  64. Count of elements                        : 2143
  65. Stream size                              : 28.5 MiB (1%)
  66. Title                                    : 简中
  67. Language                                 : Chinese
  68. Default                                  : No
  69. Forced                                   : No
  70. Text #2
  71. ID                                       : 4
  72. Format                                   : PGS
  73. Muxing mode                              : zlib
  74. Codec ID                                 : S_HDMV/PGS
  75. Codec ID/Info                            : Picture based subtitle format used on BDs/HD-DVDs
  76. Duration                                 : 1 h 27 min
  77. Bit rate                                 : 79.9 kb/s
  78. Count of elements                        : 2143
  79. Stream size                              : 50.1 MiB (2%)
  80. Title                                    : 简英双语
  81. Default                                  : Yes
  82. Forced                                   : No
  83. Text #3
  84. ID                                       : 5
  85. Format                                   : PGS
  86. Muxing mode                              : zlib
  87. Codec ID                                 : S_HDMV/PGS
  88. Codec ID/Info                            : Picture based subtitle format used on BDs/HD-DVDs
  89. Duration                                 : 1 h 27 min
  90. Bit rate                                 : 48.3 kb/s
  91. Count of elements                        : 2143
  92. Stream size                              : 30.3 MiB (1%)
  93. Title                                    : 繁中
  94. Language                                 : Chinese
  95. Default                                  : No
  96. Forced                                   : No
  97. Text #4
  98. ID                                       : 6
  99. Format                                   : PGS
  100. Muxing mode                              : zlib
  101. Codec ID                                 : S_HDMV/PGS
  102. Codec ID/Info                            : Picture based subtitle format used on BDs/HD-DVDs
  103. Duration                                 : 1 h 27 min
  104. Bit rate                                 : 82.4 kb/s
  105. Count of elements                        : 2143
  106. Stream size                              : 51.7 MiB (2%)
  107. Title                                    : 繁英双语
  108. Default                                  : No
  109. Forced                                   : No
  110. Menu
  111. 00:00:00.000                             : en:Chapter 01
  112. 00:09:38.125                             : en:Chapter 02
  113. 00:22:28.958                             : en:Chapter 03
  114. 00:32:46.083                             : en:Chapter 04
  115. 00:41:56.167                             : en:Chapter 05
  116. 00:56:21.875                             : en:Chapter 06
  117. 01:06:47.000                             : en:Chapter 07
  118. 01:16:53.417                             : en:Chapter 08





此处一般会放置磁力链或种子下载链接,不过此链接需要注册会员才能看到,点击“立即注册”
磁力链下载【下载链接仅对注册会员开放,登陆后可见】
BT9527电影天堂 1、BT9527电影天堂提供的BT文件均来源于互联网抓取,只供网友学习交流、技术提升使用。
2、我们遵守BitTorrent点对点协议原则,任何版权问题请联系原资源发布商,我们不处理任何版权纠纷,谢谢!如有争议请联系邮箱:BT9527#hotmail.com(#换成@)
3、如果您发现某页面或地址有错误,请联系站长邮箱BT9527#hotmail.com(#换成@),我们会尽快处理。您的热心是对BT9527电影天堂最大的支持。
4、本站建议去正规影院观看电影以支持电影行业发展。
最新回复 (0)

你可以在 登录 or 注册 后,对此帖发表评论!

返回
发新帖