成为简·奥斯汀[国英多音轨/简繁英字幕].Becoming.Jane.2007.BluRay.1080p.x265.10bit.2Audio-MiniHD 4.15GB

版主小s 5月前 179

✔资源类型:暂未分类   ✔电影年份:2007   ✔电影地区:欧美   ✔电影分类:剧情

◎标  题 成为简·奥斯汀
◎译  名 珍爱来临 / 成为简 / 珍奥斯汀少女日记(港) / 傲慢与偏见之简·奥斯汀 / 傲慢与偏见之简·奥斯汀少女日记
◎片  名 Becoming Jane
◎年  代 2007
◎产  地 英国 / 爱尔兰
◎类  别 剧情 / 爱情 / 传记
◎语  言 英语
◎上映日期 2007-03-09(英国)
◎IMDb评分 7/10 (60420人评价)
◎IMDb链接 https://www.imdb.com/title/tt0416508/
◎豆瓣评分 8.3/10 (232688人评价)
◎豆瓣链接 https://movie.douban.com/subject/1920805/
◎片  长 120 分钟
◎导  演 朱里安·杰拉德 Julian Jarrold
◎编  剧 简·奥斯汀 Jane Austen
◎演  员 安妮·海瑟薇 Anne Hathaway
       詹姆斯·麦卡沃伊 James McAvoy
       朱丽·沃特斯 Julie Walters
       詹姆斯·克伦威尔 James Cromwell
       玛吉·史密斯 Maggie Smith
       安娜·麦克西维尔·马丁 Anna Maxwell Martin
       露西·科乎 Lucy Cohu
       劳伦斯·福克斯 Laurence Fox
       伊恩·理查森 Ian Richardson
       乔·安德森 Joe Anderson
       里奥·比尔 Leo Bill
       杰茜卡·阿什沃思 Jessica Ashworth
       汤姆-沃恩-劳勒 Tom Vaughan-Lawlor
       Guy Carleton Guy Carleton
       费伊·塞维尔 Faye Sewell
       Elaine Murphy Elaine Murphy
       海伦·麦克洛瑞 Helen McCrory
       索菲·瓦瓦塞尔 Sophie Vavasseur
       Gina Costigan Gina Costigan
       詹姆斯·弗林 James Flynn
       格雷厄姆·布罗德本特 Graham Broadbent
       艾德里安·约翰逊 Adrian Johnston
       Eigil Bryld Eigil Bryld
       伊芙·斯图尔特 Eve Stewart
       埃默·尼·毛尔多姆奈 Eimer Ni Mhaoldomhnaigh
       Tom McInerney Tom McInerney
       Muriel Bell Muriel Bell
       维罗妮卡·麦克阿利尔 Veronica McAleer
       Sandra Kelly Sandra Kelly
       保罗·古奇 Paul Gooch
       马克·尼尔姆斯 Mark Nelmes

◎标  签 简·奥斯汀 / 爱情 / 传记 / 英国 / AnneHathaway / 英国电影 / 文艺 / 电影

◎简  介
  简•奥斯汀(安妮·海瑟薇 Anne Hathaway 饰)的一生是否如她的文字那样充满曲折的过程和完满的结局?《成为简》用传记方式描述她的一生:她的母亲竭力为她撮合婚事,对象是上层社会的有钱人。但是简不接受没有爱情的婚姻,认为女人要靠自己的能力去养活自身。于是,她拒绝贵族瓦斯莱先生的求婚,爱上了心灵相通的汤姆•勒弗罗伊(詹姆斯·麦卡沃伊 James McAvoy 饰)。                                    
                                好事多磨,有人从中作梗,导致汤姆家人并不赞成二人婚事,汤姆决定携简私奔。但是这样一来,汤姆的经济来源就会被切断,简亦将面临着世俗的压力和贫困的生活。到底二人在私奔路上会走得多远?会不会有美满的结局?
  1. ##### MediaInfo ######
  2. General
  3. Unique ID                                : 188725909332947583563191624110938964783 (0x8DFB49BACCFEBEA8BADC21B2E936C32F)
  4. Complete name                            : Becoming.Jane.2007.BluRay.1080p.x265.10bit.2Audio-MiniHD.mkv
  5. Format                                   : Matroska
  6. Format version                           : Version 4
  7. File size                                : 4.15 GiB
  8. Duration                                 : 2 h 0 min
  9. Overall bit rate                         : 4 916 kb/s
  10. Encoded date                             : UTC 2018-01-11 08:26:00
  11. Writing application                      : mkvmerge v17.0.0 ('Be Ur Friend') 64-bit
  12. Writing library                          : libebml v1.3.5 + libmatroska v1.4.8
  13. Video
  14. ID                                       : 1
  15. Format                                   : HEVC
  16. Format/Info                              : High Efficiency Video Coding
  17. Format profile                           : Main 10@L4@Main
  18. Codec ID                                 : V_MPEGH/ISO/HEVC
  19. Duration                                 : 2 h 0 min
  20. Bit rate                                 : 3 860 kb/s
  21. Width                                    : 1 920 pixels
  22. Height                                   : 816 pixels
  23. Display aspect ratio                     : 2.35:1
  24. Frame rate mode                          : Constant
  25. Frame rate                               : 23.976 (24000/1001/53354) FPS
  26. Color space                              : YUV
  27. Chroma subsampling                       : 4:2:0
  28. Bit depth                                : 10 bits
  29. Bits/(Pixel*Frame)                       : 0.103
  30. Stream size                              : 3.26 GiB (79%)
  31. Writing library                          : x265 2.2+5-e40db0bdde4a:[Windows][GCC 6.2.0][64 bit] 10bit
  32. Encoding settings                        : cpuid=533541173503 / frame-threads=6 / numa-pools=36 / wpp / no-pmode / no-pme / no-psnr / no-ssim / log-level=2 / input-csp=1 / input-res=1920x816 / interlace=0 / total-frames=174048 / level-idc=0 / high-tier=1 / uhd-bd=0 / ref=5 / no-allow-non-conformance / no-repeat-headers / annexb / no-aud / no-hrd / info / hash=0 / no-temporal-layers / no-open-gop / min-keyint=1 / keyint=360 / bframes=8 / b-adapt=2 / b-pyramid / bframe-bias=0 / rc-lookahead=60 / lookahead-slices=4 / NTMzNTQ=uuDQuD2mJt9fsCf / scenecut=40 / no-intra-refresh / ctu=32 / min-cu-size=8 / rect / no-amp / max-tu-size=16 / tu-inter-depth=2 / tu-intra-depth=2 / limit-tu=0 / rdoq-level=2 / signhide / no-tskip / nr-intra=0 / nr-inter=0 / no-constrained-intra / no-strong-intra-smoothing / max-merge=3 / limit-refs=3 / limit-modes / me=3 / subme=5 / merange=25 / temporal-mvp / weightp / weightb / no-analyze-src-pics / deblock=-1:-1 / no-sao / no-sao-non-deblock / rd=4 / no-early-skip / rskip / no-fast-intra / no-tskip-fast / no-cu-lossless / b-intra / rdpenalty=1 / psy-rd=2.00 / psy-rdoq=5.00 / no-rd-refine / analysis-mode=0 / no-lossless / cbqpoffs=-2 / crqpoffs=-2 / rc=crf / crf=21.0 / qcomp=0.65 / qpstep=4 / stats-write=0 / stats-read=0 / ipratio=1.40 / pbratio=1.30 / aq-mode=3 / aq-strength=0.80 / cutree / zone-count=0 / no-strict-cbr / qg-size=16 / no-rc-grain / qpmax=69 / qpmin=0 / sar=0 / overscan=0 / videoformat=5 / range=0 / colorprim=1 / transfer=2 / colormatrix=2 / chromaloc=0 / display-window=0 / max-cll=0,0 / min-luma=0 / max-luma=1023 / log2-max-poc-lsb=8 / vui-timing-info / vui-hrd-info / slices=1 / opt-qp-pps / opt-ref-list-length-pps / no-multi-pass-opt-rps / scenecut-bias=0.05 / no-opt-cu-delta-qp
  33. Default                                  : Yes
  34. Forced                                   : No
  35. Color range                              : Limited
  36. Color primaries                          : BT.709
  37. Audio #1
  38. ID                                       : 2
  39. Format                                   : AC-3
  40. Format/Info                              : Audio Coding 3
  41. Commercial name                          : Dolby Digital
  42. Codec ID                                 : A_AC3
  43. Duration                                 : 2 h 0 min
  44. Bit rate mode                            : Constant
  45. Bit rate                                 : 640 kb/s
  46. Channel(s)                               : 6 channels
  47. Channel layout                           : L R C LFE Ls Rs
  48. Sampling rate                            : 48.0 kHz
  49. Frame rate                               : 31.250 FPS (1536 SPF)
  50. Compression mode                         : Lossy
  51. Stream size                              : 554 MiB (13%)
  52. Title                                    : 英语
  53. Language                                 : English
  54. Service kind                             : Complete Main
  55. Default                                  : Yes
  56. Forced                                   : No
  57. Audio #2
  58. ID                                       : 3
  59. Format                                   : AC-3
  60. Format/Info                              : Audio Coding 3
  61. Commercial name                          : Dolby Digital
  62. Codec ID                                 : A_AC3
  63. Duration                                 : 2 h 0 min
  64. Bit rate mode                            : Constant
  65. Bit rate                                 : 384 kb/s
  66. Channel(s)                               : 6 channels
  67. Channel layout                           : L R C LFE Ls Rs
  68. Sampling rate                            : 48.0 kHz
  69. Frame rate                               : 31.250 FPS (1536 SPF)
  70. Compression mode                         : Lossy
  71. Stream size                              : 332 MiB (8%)
  72. Title                                    : 上译国语
  73. Language                                 : Chinese
  74. Service kind                             : Complete Main
  75. Default                                  : No
  76. Forced                                   : No
  77. Text #1
  78. ID                                       : 4
  79. Format                                   : PGS
  80. Muxing mode                              : zlib
  81. Codec ID                                 : S_HDMV/PGS
  82. Codec ID/Info                            : Picture based subtitle format used on BDs/HD-DVDs
  83. Duration                                 : 1 h 53 min
  84. Bit rate                                 : 27.3 kb/s
  85. Count of elements                        : 2365
  86. Stream size                              : 22.1 MiB (1%)
  87. Title                                    : 英文
  88. Language                                 : English
  89. Default                                  : Yes
  90. Forced                                   : No
  91. Text #2
  92. ID                                       : 5
  93. Format                                   : PGS
  94. Muxing mode                              : zlib
  95. Codec ID                                 : S_HDMV/PGS
  96. Codec ID/Info                            : Picture based subtitle format used on BDs/HD-DVDs
  97. Duration                                 : 1 h 54 min
  98. Bit rate                                 : 21.3 kb/s
  99. Count of elements                        : 2459
  100. Stream size                              : 17.4 MiB (0%)
  101. Title                                    : 原盘简体中文
  102. Language                                 : Chinese
  103. Default                                  : No
  104. Forced                                   : No
  105. Text #3
  106. ID                                       : 6
  107. Format                                   : PGS
  108. Muxing mode                              : zlib
  109. Codec ID                                 : S_HDMV/PGS
  110. Codec ID/Info                            : Picture based subtitle format used on BDs/HD-DVDs
  111. Duration                                 : 1 h 54 min
  112. Bit rate                                 : 22.2 kb/s
  113. Count of elements                        : 2459
  114. Stream size                              : 18.1 MiB (0%)
  115. Title                                    : 原盘繁体中文
  116. Language                                 : Chinese
  117. Default                                  : No
  118. Forced                                   : No
  119. Text #4
  120. ID                                       : 7
  121. Format                                   : ASS
  122. Codec ID                                 : S_TEXT/ASS
  123. Codec ID/Info                            : Advanced Sub Station Alpha
  124. Duration                                 : 1 h 55 min
  125. Bit rate                                 : 193 b/s
  126. Count of elements                        : 1070
  127. Compression mode                         : Lossless
  128. Stream size                              : 164 KiB (0%)
  129. Title                                    : 简英双语
  130. Language                                 : Chinese
  131. Default                                  : No
  132. Forced                                   : No
  133. Menu
  134. 00:00:00.000                             : en:Chapter 01
  135. 00:07:59.853                             : en:Chapter 02
  136. 00:13:37.357                             : en:Chapter 03
  137. 00:20:17.883                             : en:Chapter 04
  138. 00:28:39.342                             : en:Chapter 05
  139. 00:33:46.398                             : en:Chapter 06
  140. 00:39:59.313                             : en:Chapter 07
  141. 00:50:54.591                             : en:Chapter 08
  142. 01:01:16.046                             : en:Chapter 09
  143. 01:09:50.394                             : en:Chapter 10
  144. 01:18:34.457                             : en:Chapter 11
  145. 01:24:26.770                             : en:Chapter 12
  146. 01:32:18.615                             : en:Chapter 13
  147. 01:42:22.677                             : en:Chapter 14
  148. 01:49:39.948                             : en:Chapter 15
  149. 01:55:40.515                             : en:Chapter 16
  150. 02:00:58.208                             : en:Chapter 17





此处一般会放置磁力链或种子下载链接,不过此链接需要注册会员才能看到,点击“立即注册”
磁力链下载【下载链接仅对注册会员开放,登陆后可见】
BT9527电影天堂 1、BT9527电影天堂提供的BT文件均来源于互联网抓取,只供网友学习交流、技术提升使用。
2、我们遵守BitTorrent点对点协议原则,任何版权问题请联系原资源发布商,我们不处理任何版权纠纷,谢谢!如有争议请联系邮箱:BT9527#hotmail.com(#换成@)
3、如果您发现某页面或地址有错误,请联系站长邮箱BT9527#hotmail.com(#换成@),我们会尽快处理。您的热心是对BT9527电影天堂最大的支持。
4、本站建议去正规影院观看电影以支持电影行业发展。
最新回复 (0)

你可以在 登录 or 注册 后,对此帖发表评论!

返回