拯救大兵瑞恩[国英多音轨/简繁英特效字幕].Saving.Private.Ryan.1998.BluRay.1080p.x265.10bit.4Audio-MiniHD 19.40GB

版主小s 5月前 170

✔资源类型:暂未分类   ✔电影年份:更 早   ✔电影地区:欧美   ✔电影分类:剧情

◎标  题 拯救大兵瑞恩
◎译  名 雷霆救兵(港) / 抢救雷恩大兵(台) / 拯救大兵雷恩
◎片  名 Saving Private Ryan
◎年  代 1998
◎产  地 美国
◎类  别 剧情 / 战争
◎语  言 英语 / 法语 / 德语 / 捷克语
◎上映日期 1998-11-13(中国大陆) / 1998-07-24(美国)
◎IMDb评分 8.6/10 (1307468人评价)
◎IMDb链接 https://www.imdb.com/title/tt0120815/
◎豆瓣评分 9.0/10 (560344人评价)
◎豆瓣链接 https://movie.douban.com/subject/1292849/
◎片  长 169分钟
◎导  演 史蒂文·斯皮尔伯格 Steven Spielberg
◎编  剧 罗伯特·罗达特 Robert Rodat
◎演  员 汤姆·汉克斯 Tom Hanks
       汤姆·塞兹摩尔 Tom Sizemore
       爱德华·伯恩斯 Edward Burns
       巴里·佩珀 Barry Pepper
       亚当·戈德堡 Adam Goldberg
       范·迪塞尔 Vin Diesel
       吉奥瓦尼·瑞比西 Giovanni Ribisi
       杰瑞米·戴维斯 Jeremy Davies
       马特·达蒙 Matt Damon
       特德·丹森 Ted Danson
       保罗·吉亚玛提 Paul Giamatti
       丹尼斯·法里纳 Dennis Farina
       马克斯·马蒂尼 Max Martini
       丹兰·布鲁诺 Dylan Bruno
       丹尼尔·切尔奎拉 Daniel Cerqueira
       迪米特里·格里特萨斯 Demetri Goritsas
       史蒂夫·格里芬 Steve Griffin
       彼得·迈尔斯 Peter Miles
       亚当·肖 Adam Shaw
       罗尔夫·萨克森 Rolf Saxon
       克里·约翰逊 Corey Johnson
       洛克兰·艾肯 Loclann Aiken
       尚恩·约翰逊 Shane Johnson
       莱尔德·曼辛托斯 Laird Macintosh
       安德鲁·斯科特 Andrew Scott
       马修·夏普 Matthew Sharp
       文森特·沃尔什 Vincent Walsh
       约翰·沙拉恩 John Sharian
       马丁·哈伯 Martin Hub
       罗非洛·迪格托勒 Raffaello Degruttola
       恩里奇·雷德曼 Erich Redman
       米歇尔·埃文斯 Michelle Evans
       内森·菲利安 Nathan Fillion
       利兰·奥瑟 Leland Orser
       大卫·维格 David Vegh
       瑞恩·赫斯特 Ryan Hurst
       哈威·普雷斯内尔 Harve Presnell
       代尔·戴 Dale Dye
       布莱恩·科兰斯顿 Bryan Cranston
       大卫·沃尔 David Wohl
       埃里克·罗兰 Eric Loren
       哈里逊·杨 Harrison Young
       凯思琳·拜荣 Kathleen Byron
       约翰·德·兰西 John de Lancie
       詹姆斯·恩布里 James Embree
       德里克·李 Derek Lea
       若昂·科斯塔·梅内塞斯 João Costa Menezes
       马克·施泰因迈尔 Mac Steinmeier
       布莱恩·格拉格提 Brian Geraghty
       徐光宇 Guangyu Xu
       田二喜 Erxi Tian
       史蒂文·斯皮尔伯格 Steven Spielberg
       加里·莱温索恩 Gary Levinsohn
       Bonnie Curtis Bonnie Curtis
       Allison Lyon Segan Allison Lyon Segan
       伊安·布莱斯 Ian Bryce
       马克·赫法姆 Mark Huffam
       约翰·威廉姆斯 John Williams
       雅努什·卡明斯基 Janusz Kaminski
       迈克尔·卡恩 Michael Kahn
       丹尼斯·查米恩 Denise Chamian
       托马斯·E·桑德斯 Thomas E. Sanders
       Ricky Eyres Ricky Eyres
       丽莎·迪恩 Lisa Dean
       克里斯·西格斯 Chris Seagers
       丹尼尔·T·多兰斯 Daniel T. Dorrance
       阿兰·汤姆金斯 Alan Tomkins
       乔安娜·约翰斯顿 Joanna Johnston
       西安·格里格 Sian Grigg
       洛伊斯·布尔维尔 Lois Burwell
       波莉·恩肖 Polly Earnshaw
       Martina McCarthy Martina McCarthy
       Ailbhe Lemass Ailbhe Lemass
       伊丽莎白·雅尼-乔治乌 Elizabeth Yianni-Georgiou
       Jeanette Freeman Jeanette Freeman
       Betty Glasow Betty Glasow
       宝琳·黑斯 Pauline Heys
       塞尔吉奥·米米卡-戈赞 Sergio Mimica-Gezzan
       Adam Goodman Adam Goodman
       Karen Richards Karen Richards
       Chad Taylor Chad Taylor
       罗杰·盖耶特 Roger Guyett
       肯尼斯·史密斯 Kenneth Smith
       杰弗·海隆 Geoff Heron
       贝丝·达马托 Beth D'Amato
       Kim Bromley Kim Bromley
       Martin Rosenberg Martin Rosenberg
       Alexander Laurant Alexander Laurant

◎标  签 战争 / 二战 / 斯皮尔伯格 / 经典 / 美国 / 人性 / 汤姆·汉克斯 / TomHanks

◎简  介
  瑞恩(马特•达蒙 Matt Damon饰 )是二战期间的美国伞兵,被困在了敌人后方。更不幸的是,他的三个兄弟全部在战争中死亡,如果他也遇难,家中的老母亲将无依无靠。                                    
                                美国作战总指挥部知道了这个情况,毅然决定组织一个小分队前往救援,其中包括米勒上尉(汤姆•汉克斯 Tom Hanks 饰 )和翻译厄本(杰里米.戴维斯 Jererry Davies饰)。然而,敌方危险重重,他们一路上随时与死亡打交道。他们非常怀疑,到底值不值得冒着八个人的生命危险,去搭救一个人。                                    
                                大家一路辗转寻找瑞恩,对于这次搭救行动,有人不满,有人热忱,有人好奇。大家一次次闻到死神的气息,瑞恩的获救付出了沉重的代价。
  1. ##### MediaInfo ######
  2. General
  3. Unique ID                                : 320575610732747283205690391536673117208 (0xF12C9DE79732D9CD348A0A3AAC4A5418)
  4. Complete name                            : Saving.Private.Ryan.1998.BluRay.1080p.x265.10bit.4Audio-MiniHD.mkv
  5. Format                                   : Matroska
  6. Format version                           : Version 4
  7. File size                                : 19.4 GiB
  8. Duration                                 : 2 h 49 min
  9. Overall bit rate                         : 16.4 Mb/s
  10. Encoded date                             : UTC 2018-05-08 01:15:04
  11. Writing application                      : mkvmerge v20.0.0 ('I Am The Sun') 64-bit
  12. Writing library                          : libebml v1.3.5 + libmatroska v1.4.8
  13. Video
  14. ID                                       : 1
  15. Format                                   : HEVC
  16. Format/Info                              : High Efficiency Video Coding
  17. Format profile                           : Main 10@L4@Main
  18. Codec ID                                 : V_MPEGH/ISO/HEVC
  19. Duration                                 : 2 h 49 min
  20. Bit rate                                 : 13.7 Mb/s
  21. Width                                    : 1 920 pixels
  22. Height                                   : 1 038 pixels
  23. Display aspect ratio                     : 1.85:1
  24. Frame rate mode                          : Constant
  25. Frame rate                               : 23.976 (24000/1001/53354) FPS
  26. Color space                              : YUV
  27. Chroma subsampling                       : 4:2:0
  28. Bit depth                                : 10 bits
  29. Bits/(Pixel*Frame)                       : 0.286
  30. Stream size                              : 16.2 GiB (84%)
  31. Writing library                          : x265 2.3+32-1ed218717877:[Windows][GCC 6.3.0][64 bit] 10bit
  32. Encoding settings                        : cpuid=533541173503 / frame-threads=6 / numa-pools=36 / wpp / no-pmode / no-pme / no-psnr / no-ssim / log-level=2 / input-csp=1 / input-res=1920x1038 / interlace=0 / total-frames=1080 / level-idc=0 / high-tier=1 / uhd-bd=0 / ref=5 / no-allow-non-conformance / no-repeat-headers / annexb / no-aud / no-hrd / info / hash=0 / no-temporal-layers / no-open-gop / min-keyint=1 / keyint=360 / bframes=8 / b-adapt=2 / b-pyramid / bframe-bias=0 / rc-lookahead=60 / lookahead-slices=4 / NTMzNTQ=uuDQuD2mJt9fsCf / scenecut=40 / no-intra-refresh / ctu=32 / min-cu-size=8 / rect / no-amp / max-tu-size=16 / tu-inter-depth=2 / tu-intra-depth=2 / limit-tu=4 / rdoq-level=2 / dynamic-rd=0.00 / ssim-rd / signhide / no-tskip / nr-intra=0 / nr-inter=0 / no-constrained-intra / no-strong-intra-smoothing / max-merge=3 / limit-refs=1 / limit-modes / me=3 / subme=5 / merange=25 / temporal-mvp / weightp / weightb / no-analyze-src-pics / deblock=-1:-1 / no-sao / no-sao-non-deblock / rd=4 / no-early-skip / rskip / no-fast-intra / no-tskip-fast / no-cu-lossless / b-intra / rdpenalty=1 / psy-rd=0.00 / psy-rdoq=5.00 / no-rd-refine / analysis-mode=0 / no-lossless / cbqpoffs=-2 / crqpoffs=-2 / rc=crf / crf=21.0 / qcomp=0.75 / qpstep=4 / stats-write=0 / stats-read=0 / ipratio=1.40 / pbratio=1.30 / aq-mode=2 / aq-strength=0.80 / cutree / zone-count=0 / no-strict-cbr / qg-size=16 / no-rc-grain / qpmax=69 / qpmin=0 / sar=0 / overscan=0 / videoformat=5 / range=0 / colorprim=1 / transfer=2 / colormatrix=2 / chromaloc=0 / display-window=0 / max-cll=0,0 / min-luma=0 / max-luma=1023 / log2-max-poc-lsb=8 / vui-timing-info / vui-hrd-info / slices=1 / opt-qp-pps / opt-ref-list-length-pps / no-multi-pass-opt-rps / scenecut-bias=0.05 / no-opt-cu-delta-qp / no-aq-motion / no-hdr / no-hdr-opt / refine-level=5 / no-limit-sao
  33. Default                                  : Yes
  34. Forced                                   : No
  35. Color range                              : Limited
  36. Color primaries                          : BT.709
  37. Audio #1
  38. ID                                       : 2
  39. Format                                   : AC-3
  40. Format/Info                              : Audio Coding 3
  41. Commercial name                          : Dolby Digital
  42. Codec ID                                 : A_AC3
  43. Duration                                 : 2 h 49 min
  44. Bit rate mode                            : Constant
  45. Bit rate                                 : 640 kb/s
  46. Channel(s)                               : 6 channels
  47. Channel layout                           : L R C LFE Ls Rs
  48. Sampling rate                            : 48.0 kHz
  49. Frame rate                               : 31.250 FPS (1536 SPF)
  50. Compression mode                         : Lossy
  51. Stream size                              : 776 MiB (4%)
  52. Title                                    : 英语
  53. Language                                 : English
  54. Service kind                             : Complete Main
  55. Default                                  : Yes
  56. Forced                                   : No
  57. Audio #2
  58. ID                                       : 3
  59. Format                                   : AC-3
  60. Format/Info                              : Audio Coding 3
  61. Commercial name                          : Dolby Digital
  62. Codec ID                                 : A_AC3
  63. Duration                                 : 2 h 49 min
  64. Bit rate mode                            : Constant
  65. Bit rate                                 : 640 kb/s
  66. Channel(s)                               : 6 channels
  67. Channel layout                           : L R C LFE Ls Rs
  68. Sampling rate                            : 48.0 kHz
  69. Frame rate                               : 31.250 FPS (1536 SPF)
  70. Compression mode                         : Lossy
  71. Stream size                              : 776 MiB (4%)
  72. Title                                    : 八一国语
  73. Language                                 : Chinese
  74. Service kind                             : Complete Main
  75. Default                                  : No
  76. Forced                                   : No
  77. Audio #3
  78. ID                                       : 4
  79. Format                                   : AC-3
  80. Format/Info                              : Audio Coding 3
  81. Commercial name                          : Dolby Digital
  82. Codec ID                                 : A_AC3
  83. Duration                                 : 2 h 49 min
  84. Bit rate mode                            : Constant
  85. Bit rate                                 : 640 kb/s
  86. Channel(s)                               : 6 channels
  87. Channel layout                           : L R C LFE Ls Rs
  88. Sampling rate                            : 48.0 kHz
  89. Frame rate                               : 31.250 FPS (1536 SPF)
  90. Compression mode                         : Lossy
  91. Stream size                              : 776 MiB (4%)
  92. Title                                    : 东影上译国语
  93. Language                                 : Chinese
  94. Service kind                             : Complete Main
  95. Default                                  : No
  96. Forced                                   : No
  97. Audio #4
  98. ID                                       : 5
  99. Format                                   : AC-3
  100. Format/Info                              : Audio Coding 3
  101. Commercial name                          : Dolby Digital
  102. Codec ID                                 : A_AC3
  103. Duration                                 : 2 h 49 min
  104. Bit rate mode                            : Constant
  105. Bit rate                                 : 640 kb/s
  106. Channel(s)                               : 6 channels
  107. Channel layout                           : L R C LFE Ls Rs
  108. Sampling rate                            : 48.0 kHz
  109. Frame rate                               : 31.250 FPS (1536 SPF)
  110. Compression mode                         : Lossy
  111. Stream size                              : 776 MiB (4%)
  112. Title                                    : 央视长译国语
  113. Language                                 : Chinese
  114. Service kind                             : Complete Main
  115. Default                                  : No
  116. Forced                                   : No
  117. Text #1
  118. ID                                       : 6
  119. Format                                   : PGS
  120. Muxing mode                              : zlib
  121. Codec ID                                 : S_HDMV/PGS
  122. Codec ID/Info                            : Picture based subtitle format used on BDs/HD-DVDs
  123. Duration                                 : 2 h 49 min
  124. Bit rate                                 : 31.8 kb/s
  125. Count of elements                        : 3358
  126. Stream size                              : 38.5 MiB (0%)
  127. Title                                    : 英文
  128. Language                                 : English
  129. Default                                  : Yes
  130. Forced                                   : No
  131. Text #2
  132. ID                                       : 7
  133. Format                                   : PGS
  134. Muxing mode                              : zlib
  135. Codec ID                                 : S_HDMV/PGS
  136. Codec ID/Info                            : Picture based subtitle format used on BDs/HD-DVDs
  137. Duration                                 : 2 h 44 min
  138. Bit rate                                 : 76.9 kb/s
  139. Count of elements                        : 5771
  140. Stream size                              : 90.4 MiB (0%)
  141. Title                                    : 八一国语简中特效
  142. Language                                 : Chinese
  143. Default                                  : No
  144. Forced                                   : No
  145. Text #3
  146. ID                                       : 8
  147. Format                                   : PGS
  148. Muxing mode                              : zlib
  149. Codec ID                                 : S_HDMV/PGS
  150. Codec ID/Info                            : Picture based subtitle format used on BDs/HD-DVDs
  151. Duration                                 : 2 h 44 min
  152. Bit rate                                 : 85.1 kb/s
  153. Count of elements                        : 6035
  154. Stream size                              : 100.0 MiB (1%)
  155. Title                                    : 上译国语简中特效
  156. Language                                 : Chinese
  157. Default                                  : No
  158. Forced                                   : No
  159. Text #4
  160. ID                                       : 9
  161. Format                                   : PGS
  162. Muxing mode                              : zlib
  163. Codec ID                                 : S_HDMV/PGS
  164. Codec ID/Info                            : Picture based subtitle format used on BDs/HD-DVDs
  165. Duration                                 : 2 h 44 min
  166. Bit rate                                 : 72.4 kb/s
  167. Count of elements                        : 4002
  168. Stream size                              : 85.1 MiB (0%)
  169. Title                                    : 简英双语特效
  170. Language                                 : Chinese
  171. Default                                  : No
  172. Forced                                   : No
  173. Text #5
  174. ID                                       : 10
  175. Format                                   : PGS
  176. Muxing mode                              : zlib
  177. Codec ID                                 : S_HDMV/PGS
  178. Codec ID/Info                            : Picture based subtitle format used on BDs/HD-DVDs
  179. Duration                                 : 2 h 49 min
  180. Bit rate                                 : 19.5 kb/s
  181. Count of elements                        : 2728
  182. Stream size                              : 23.5 MiB (0%)
  183. Title                                    : 蓝光原盘繁中TW
  184. Language                                 : Chinese
  185. Default                                  : No
  186. Forced                                   : No
  187. Text #6
  188. ID                                       : 11
  189. Format                                   : PGS
  190. Muxing mode                              : zlib
  191. Codec ID                                 : S_HDMV/PGS
  192. Codec ID/Info                            : Picture based subtitle format used on BDs/HD-DVDs
  193. Duration                                 : 2 h 49 min
  194. Bit rate                                 : 19.5 kb/s
  195. Count of elements                        : 2730
  196. Stream size                              : 23.6 MiB (0%)
  197. Title                                    : 蓝光原盘繁中HK
  198. Language                                 : Chinese
  199. Default                                  : No
  200. Forced                                   : No
  201. Menu
  202. 00:00:00.000                             : en:Chapter 01
  203. 00:04:31.437                             : en:Chapter 02
  204. 00:13:48.077                             : en:Chapter 03
  205. 00:18:57.886                             : en:Chapter 04
  206. 00:26:54.487                             : en:Chapter 05
  207. 00:36:12.795                             : en:Chapter 06
  208. 00:45:48.537                             : en:Chapter 07
  209. 00:57:40.456                             : en:Chapter 08
  210. 01:05:27.340                             : en:Chapter 09
  211. 01:13:46.839                             : en:Chapter 10
  212. 01:17:43.075                             : en:Chapter 11
  213. 01:24:06.082                             : en:Chapter 12
  214. 01:35:30.724                             : en:Chapter 13
  215. 01:46:44.189                             : en:Chapter 14
  216. 01:59:36.544                             : en:Chapter 15
  217. 02:07:26.597                             : en:Chapter 16
  218. 02:17:12.599                             : en:Chapter 17
  219. 02:26:55.389                             : en:Chapter 18
  220. 02:32:43.737                             : en:Chapter 19
  221. 02:42:39.916                             : en:Chapter 20





此处一般会放置磁力链或种子下载链接,不过此链接需要注册会员才能看到,点击“立即注册”
磁力链下载【下载链接仅对注册会员开放,登陆后可见】
BT9527电影天堂 1、BT9527电影天堂提供的BT文件均来源于互联网抓取,只供网友学习交流、技术提升使用。
2、我们遵守BitTorrent点对点协议原则,任何版权问题请联系原资源发布商,我们不处理任何版权纠纷,谢谢!如有争议请联系邮箱:BT9527#hotmail.com(#换成@)
3、如果您发现某页面或地址有错误,请联系站长邮箱BT9527#hotmail.com(#换成@),我们会尽快处理。您的热心是对BT9527电影天堂最大的支持。
4、本站建议去正规影院观看电影以支持电影行业发展。
最新回复 (0)

你可以在 登录 or 注册 后,对此帖发表评论!

返回
发新帖