敦刻尔克[国英多音轨/简繁英字幕].Dunkirk.2017.BluRay.1080p.x265.10bit.HDR10.2Audio-MiniHD 3.90GB

版主小s 5月前 203

✔资源类型:暂未分类   ✔电影年份:2017   ✔电影地区:欧美   ✔电影分类:剧情

◎标  题 敦刻尔克
◎译  名 邓寇克大行动(港) / 敦克尔克大行动(台) / 敦刻尔克大撤退
◎片  名 Dunkirk
◎年  代 2017
◎产  地 英国 / 法国 / 美国 / 荷兰
◎类  别 剧情 / 历史 / 战争
◎语  言 英语 / 法语 / 德语
◎上映日期 2017-09-01(中国大陆) / 2017-07-13(伦敦首映) / 2017-07-21(美国)
◎IMDb评分 7.8/10 (606538人评价)
◎IMDb链接 https://www.imdb.com/title/tt5013056/
◎豆瓣评分 8.4/10 (628631人评价)
◎豆瓣链接 https://movie.douban.com/subject/26607693/
◎片  长 107分钟
◎导  演 克里斯托弗·诺兰 Christopher Nolan
◎编  剧 克里斯托弗·诺兰 Christopher Nolan
◎演  员 菲恩·怀特海德 Fionn Whitehead
       汤姆·格林-卡尼 Tom Glynn-Carney
       杰克·劳登 Jack Lowden
       哈里·斯泰尔斯 Harry Styles
       阿奈林·巴纳德 Aneurin Barnard
       汤姆·哈迪 Tom Hardy
       马克·里朗斯 Mark Rylance
       巴里·基奥恩 Barry Keoghan
       基里安·墨菲 Cillian Murphy
       詹姆斯·达西 James D'Arcy
       肯尼思·布拉纳 Kenneth Branagh
       李·阿姆斯特朗 Lee Armstrong
       詹姆斯·布鲁尔 James Bloor
       达米安·勃纳尔 Damien Bonnard
       布莱恩·威纳尔 Brian Vernel
       哈利·理查森 Harry Richardson
       艾略特·提特恩索 Elliott Tittensor
       凯文·格思里 Kevin Guthrie
       巴比·洛克伍德 Bobby Lockwood
       米歇尔·贝尔 Michel Biel
       比利·豪尔 Billy Howle
       迈克尔·凯恩 Michael Caine
       约翰·诺兰 John Nolan
       米兰达·诺兰 Miranda Nolan
       马修·马什 Matthew Marsh
       布莱德利·豪尔 Bradley Hall
       杰克·卡特莫尔-斯科特 Jack Cutmore-Scott
       威尔·阿滕伯勒 Will Attenborough
        
       理查德·桑德森 Richard Sanderson
       金·哈特曼 Kim Hartman
       查理·帕尔默·罗斯韦尔 Charley Palmer Rothwell
       卡勒姆·布雷克 Callum Blake
       卢克·汤普森 Luke Thompson
       哈利·柯勒特 Harry Collett
       迈克尔·福克斯 Michael Fox
       卡拉姆·林奇 Calam Lynch
       比尔·米尔纳 Bill Milner
       克里斯托弗·诺兰 Christopher Nolan
       艾玛·托马斯 Emma Thomas
       汉斯·季默 Hans Zimmer
       霍伊特·范·霍特玛 Hoyte Van Hoytema
       李·史密斯 Lee Smith
       杰弗里·库兰 Jeffrey Kurland
       理查德·金 Richard King

◎标  签 二战 / 战争 / 历史 / 真实事件改编 / 英国 / 军事 / 人性 / 剧情

◎简  介
  故事改编自著名的二战军事事件“敦刻尔克大撤退”。二战初期,40万英法盟军被敌军围困于敦刻尔克的海滩之上,面对敌军步步逼近的绝境,形势万分危急。英国政府和海军发动大批船员,动员人民起来营救军队。                                    
                                英国士兵汤米(菲昂·怀特海德 Fionn Whitehead 饰)在逃离海滩的过程中相继结识吉布森与亚历克斯,同时民用船主道森先生(马克·里朗斯 Mark Rylance 饰)与儿子彼得、17岁少年乔治也离开英国,去往敦刻尔克拯救士兵。三人陆续搭救了海军(基里安·墨菲 Cillian Murphy 饰)、飞行员柯林斯及汤米一行人,而战斗机飞行员法瑞尔(汤姆·哈迪 Tom Hardy 饰)则在被敌人双面夹击的艰难情形下顽强战斗。                                    
                                影片的故事从陆、海、空三个角度讲述,在德国军队的包围下,每个人不得不为自己的命运背水一战,才有可能活着回家。
  1. ##### MediaInfo ######
  2. General
  3. Unique ID                                : 184751316608532070297986183015391075504 (0x8AFDCF2DC4EFE9D38B659C38E2AC9CB0)
  4. Complete name                            : Dunkirk.2017.BluRay.1080p.x265.10bit.HDR10.2Audio-MiniHD.mkv
  5. Format                                   : Matroska
  6. Format version                           : Version 4
  7. File size                                : 3.89 GiB
  8. Duration                                 : 1 h 46 min
  9. Overall bit rate                         : 5 228 kb/s
  10. Encoded date                             : UTC 2018-01-15 13:53:14
  11. Writing application                      : mkvmerge v18.0.0 ('Apricity') 64-bit
  12. Writing library                          : libebml v1.3.5 + libmatroska v1.4.8
  13. Video
  14. ID                                       : 1
  15. Format                                   : HEVC
  16. Format/Info                              : High Efficiency Video Coding
  17. Format profile                           : Main 10@L5.1@Main
  18. HDR format                               : SMPTE ST 2086, HDR10 compatible
  19. Codec ID                                 : V_MPEGH/ISO/HEVC
  20. Duration                                 : 1 h 46 min
  21. Bit rate                                 : 4 034 kb/s
  22. Width                                    : 1 920 pixels
  23. Height                                   : 1 080 pixels
  24. Display aspect ratio                     : 16:9
  25. Frame rate mode                          : Constant
  26. Frame rate                               : 23.976 (24000/1001/53354) FPS
  27. Color space                              : YUV
  28. Chroma subsampling                       : 4:2:0 (Type 2)
  29. Bit depth                                : 10 bits
  30. Bits/(Pixel*Frame)                       : 0.081
  31. Stream size                              : 3.00 GiB (77%)
  32. Writing library                          : x265 2.5+47-6a882a9300c2:[Windows][GCC 7.2.0][64 bit] 10bit
  33. Encoding settings                        : cpuid=533541173503 / frame-threads=3 / numa-pools=8 / wpp / no-pmode / no-pme / no-psnr / no-ssim / log-level=2 / csvfn=I:\encode\d.log / csv-log-level=0 / input-csp=1 / input-res=1920x1080 / interlace=0 / total-frames=0 / level-idc=51 / high-tier=1 / uhd-bd=0 / ref=5 / no-allow-non-conformance / repeat-headers / annexb / aud / hrd / info / hash=0 / no-temporal-layers / no-open-gop / min-keyint=1 / keyint=360 / bframes=8 / b-adapt=2 / b-pyramid / bframe-bias=0 / rc-lookahead=60 / lookahead-slices=4 / NTMzNTQ=uuDQuD2mJt9fsCf / scenecut=40 / no-intra-refresh / ctu=32 / min-cu-size=8 / no-rect / no-amp / max-tu-size=32 / tu-inter-depth=2 / tu-intra-depth=2 / limit-tu=4 / rdoq-level=2 / dynamic-rd=0.00 / ssim-rd / signhide / no-tskip / nr-intra=0 / nr-inter=0 / no-constrained-intra / no-strong-intra-smoothing / max-merge=3 / limit-refs=2 / limit-modes / me=3 / subme=5 / merange=25 / temporal-mvp / weightp / weightb / no-analyze-src-pics / deblock=-1:-1 / no-sao / no-sao-non-deblock / rd=4 / no-early-skip / no-rskip / no-fast-intra / no-tskip-fast / no-cu-lossless / b-intra / no-splitrd-skip / rdpenalty=1 / psy-rd=0.00 / psy-rdoq=5.00 / no-rd-refine / analysis-reuse-mode=0 / no-lossless / cbqpoffs=-3 / crqpoffs=-3 / rc=crf / crf=18.0 / qcomp=0.75 / qpstep=4 / stats-write=0 / stats-read=0 / vbv-maxrate=40000 / vbv-bufsize=40000 / vbv-init=0.9 / crf-max=0.0 / crf-min=0.0 / ipratio=1.30 / pbratio=1.20 / aq-mode=3 / aq-strength=0.90 / cutree / zone-count=0 / no-strict-cbr / qg-size=32 / no-rc-grain / qpmax=69 / qpmin=0 / no-const-vbv / sar=1 / overscan=0 / videoformat=5 / range=0 / colorprim=9 / transfer=16 / colormatrix=9 / chromaloc=1 / chromaloc-top=2 / chromaloc-bottom=2 / display-window=0 / master-display=G(13250,34500)B(7500,3000)R(34000,16000)WP(15635,16450)L(40000000,50) / max-cll=323,144 / min-luma=0 / max-luma=1023 / log2-max-poc-lsb=8 / vui-timing-info / vui-hrd-info / slices=1 / opt-qp-pps / opt-ref-list-length-pps / no-multi-pass-opt-rps / scenecut-bias=0.05 / no-opt-cu-delta-qp / no-aq-motion / hdr / hdr-opt / no-dhdr10-opt / analysis-reuse-level=5 / scale-factor=0 / refine-intra=0 / refine-inter=0 / refine-mv=0 / no-limit-sao / ctu-info=0 / no-lowpass-dct / refine-mv-type=0
  34. Default                                  : Yes
  35. Forced                                   : No
  36. Color range                              : Limited
  37. Color primaries                          : BT.2020
  38. Transfer characteristics                 : PQ
  39. Matrix coefficients                      : BT.2020 non-constant
  40. Mastering display color primaries        : Display P3
  41. Mastering display luminance              : min: 0.0050 cd/m2, max: 4000 cd/m2
  42. Maximum Content Light Level              : 323 cd/m2
  43. Maximum Frame-Average Light Level        : 144 cd/m2
  44. Audio #1
  45. ID                                       : 2
  46. Format                                   : AC-3
  47. Format/Info                              : Audio Coding 3
  48. Commercial name                          : Dolby Digital
  49. Codec ID                                 : A_AC3
  50. Duration                                 : 1 h 46 min
  51. Bit rate mode                            : Constant
  52. Bit rate                                 : 640 kb/s
  53. Channel(s)                               : 6 channels
  54. Channel layout                           : L R C LFE Ls Rs
  55. Sampling rate                            : 48.0 kHz
  56. Frame rate                               : 31.250 FPS (1536 SPF)
  57. Compression mode                         : Lossy
  58. Stream size                              : 488 MiB (12%)
  59. Title                                    : English
  60. Language                                 : English
  61. Service kind                             : Complete Main
  62. Default                                  : Yes
  63. Forced                                   : No
  64. Audio #2
  65. ID                                       : 3
  66. Format                                   : AC-3
  67. Format/Info                              : Audio Coding 3
  68. Commercial name                          : Dolby Digital
  69. Codec ID                                 : A_AC3
  70. Duration                                 : 1 h 46 min
  71. Bit rate mode                            : Constant
  72. Bit rate                                 : 448 kb/s
  73. Channel(s)                               : 6 channels
  74. Channel layout                           : L R C LFE Ls Rs
  75. Sampling rate                            : 48.0 kHz
  76. Frame rate                               : 31.250 FPS (1536 SPF)
  77. Compression mode                         : Lossy
  78. Stream size                              : 342 MiB (9%)
  79. Title                                    : Mandarin
  80. Language                                 : Chinese
  81. Service kind                             : Complete Main
  82. Default                                  : No
  83. Forced                                   : No
  84. Text #1
  85. ID                                       : 4
  86. Format                                   : PGS
  87. Muxing mode                              : zlib
  88. Codec ID                                 : S_HDMV/PGS
  89. Codec ID/Info                            : Picture based subtitle format used on BDs/HD-DVDs
  90. Duration                                 : 1 h 45 min
  91. Bit rate                                 : 19.9 kb/s
  92. Count of elements                        : 1718
  93. Stream size                              : 15.0 MiB (0%)
  94. Title                                    : 英文
  95. Language                                 : English
  96. Default                                  : Yes
  97. Forced                                   : No
  98. Text #2
  99. ID                                       : 5
  100. Format                                   : PGS
  101. Muxing mode                              : zlib
  102. Codec ID                                 : S_HDMV/PGS
  103. Codec ID/Info                            : Picture based subtitle format used on BDs/HD-DVDs
  104. Duration                                 : 1 h 45 min
  105. Bit rate                                 : 11.4 kb/s
  106. Count of elements                        : 1366
  107. Stream size                              : 8.60 MiB (0%)
  108. Title                                    : 繁体中文
  109. Language                                 : Chinese
  110. Default                                  : No
  111. Forced                                   : No
  112. Text #3
  113. ID                                       : 6
  114. Format                                   : PGS
  115. Muxing mode                              : zlib
  116. Codec ID                                 : S_HDMV/PGS
  117. Codec ID/Info                            : Picture based subtitle format used on BDs/HD-DVDs
  118. Duration                                 : 1 h 46 min
  119. Bit rate                                 : 17.0 kb/s
  120. Count of elements                        : 1311
  121. Stream size                              : 12.9 MiB (0%)
  122. Title                                    : 简体中文
  123. Language                                 : Chinese
  124. Default                                  : No
  125. Forced                                   : No
  126. Text #4
  127. ID                                       : 7
  128. Format                                   : PGS
  129. Muxing mode                              : zlib
  130. Codec ID                                 : S_HDMV/PGS
  131. Codec ID/Info                            : Picture based subtitle format used on BDs/HD-DVDs
  132. Duration                                 : 1 h 46 min
  133. Bit rate                                 : 12.1 kb/s
  134. Count of elements                        : 1424
  135. Stream size                              : 9.21 MiB (0%)
  136. Title                                    : 繁体中文
  137. Language                                 : Chinese
  138. Default                                  : No
  139. Forced                                   : No
  140. Text #5
  141. ID                                       : 8
  142. Format                                   : PGS
  143. Muxing mode                              : zlib
  144. Codec ID                                 : S_HDMV/PGS
  145. Codec ID/Info                            : Picture based subtitle format used on BDs/HD-DVDs
  146. Duration                                 : 1 h 40 min
  147. Bit rate                                 : 34.1 kb/s
  148. Count of elements                        : 2493
  149. Stream size                              : 24.6 MiB (1%)
  150. Title                                    : 国配简体中文
  151. Language                                 : Chinese
  152. Default                                  : No
  153. Forced                                   : No
  154. Text #6
  155. ID                                       : 9
  156. Format                                   : PGS
  157. Muxing mode                              : zlib
  158. Codec ID                                 : S_HDMV/PGS
  159. Codec ID/Info                            : Picture based subtitle format used on BDs/HD-DVDs
  160. Duration                                 : 1 h 40 min
  161. Bit rate                                 : 34.2 kb/s
  162. Count of elements                        : 2493
  163. Stream size                              : 24.7 MiB (1%)
  164. Title                                    : 国配繁体中文
  165. Language                                 : Chinese
  166. Default                                  : No
  167. Forced                                   : No
  168. Text #7
  169. ID                                       : 10
  170. Format                                   : PGS
  171. Muxing mode                              : zlib
  172. Codec ID                                 : S_HDMV/PGS
  173. Codec ID/Info                            : Picture based subtitle format used on BDs/HD-DVDs
  174. Duration                                 : 1 h 40 min
  175. Bit rate                                 : 47.9 kb/s
  176. Count of elements                        : 2533
  177. Stream size                              : 34.6 MiB (1%)
  178. Title                                    : 简英双语
  179. Language                                 : Chinese
  180. Default                                  : No
  181. Forced                                   : No
  182. Text #8
  183. ID                                       : 11
  184. Format                                   : PGS
  185. Muxing mode                              : zlib
  186. Codec ID                                 : S_HDMV/PGS
  187. Codec ID/Info                            : Picture based subtitle format used on BDs/HD-DVDs
  188. Duration                                 : 1 h 40 min
  189. Bit rate                                 : 48.0 kb/s
  190. Count of elements                        : 2533
  191. Stream size                              : 34.6 MiB (1%)
  192. Title                                    : 繁英双语
  193. Language                                 : Chinese
  194. Default                                  : No
  195. Forced                                   : No
  196. Menu
  197. 00:00:00.000                             : en:00:00:00.000
  198. 00:08:51.364                             : en:00:08:51.364
  199. 00:20:13.754                             : en:00:20:13.754
  200. 00:29:07.621                             : en:00:29:07.621
  201. 00:42:35.261                             : en:00:42:35.261
  202. 00:52:48.207                             : en:00:52:48.207
  203. 01:04:32.827                             : en:01:04:32.827
  204. 01:12:50.825                             : en:01:12:50.825
  205. 01:25:55.025                             : en:01:25:55.025
  206. 01:33:23.348                             : en:01:33:23.348
  207. 01:39:13.906                             : en:01:39:13.906





此处一般会放置磁力链或种子下载链接,不过此链接需要注册会员才能看到,点击“立即注册”
磁力链下载【下载链接仅对注册会员开放,登陆后可见】
BT9527电影天堂 1、BT9527电影天堂提供的BT文件均来源于互联网抓取,只供网友学习交流、技术提升使用。
2、我们遵守BitTorrent点对点协议原则,任何版权问题请联系原资源发布商,我们不处理任何版权纠纷,谢谢!如有争议请联系邮箱:BT9527#hotmail.com(#换成@)
3、如果您发现某页面或地址有错误,请联系站长邮箱BT9527#hotmail.com(#换成@),我们会尽快处理。您的热心是对BT9527电影天堂最大的支持。
4、本站建议去正规影院观看电影以支持电影行业发展。
最新回复 (0)

你可以在 登录 or 注册 后,对此帖发表评论!

返回
发新帖