星球大战8:最后的绝地武士[国英多音轨/简繁英字幕].Star.Wars.The.Last.Jedi.2017.BluRay.1080p.x265.10bit.2Audio-MiniHD 6.26GB

版主小s 5月前 195

✔资源类型:暂未分类   ✔电影年份:2017   ✔电影地区:欧美   ✔电影分类:动作

◎标  题 星球大战8:最后的绝地武士
◎译  名 星球大战:最后绝地武士(港) / 星球大战8 / 星战8 / Star Wars: Episode VIII
◎片  名 Star Wars: The Last Jedi
◎年  代 2017
◎产  地 美国
◎类  别 动作 / 科幻 / 冒险
◎语  言 英语
◎上映日期 2018-01-05(中国大陆) / 2017-12-15(美国)
◎IMDb评分 6.9/10 (595398人评价)
◎IMDb链接 https://www.imdb.com/title/tt2527336/
◎豆瓣评分 7.1/10 (140912人评价)
◎豆瓣链接 https://movie.douban.com/subject/22265634/
◎片  长 152分钟
◎导  演 莱恩·约翰逊 Rian Johnson
◎编  剧 莱恩·约翰逊 Rian Johnson
       乔治·卢卡斯 George Lucas
◎演  员 马克·哈米尔 Mark Hamill
       凯丽·费雪 Carrie Fisher
       黛西·雷德利 Daisy Ridley
       亚当·德赖弗 Adam Driver
       约翰·博耶加 John Boyega
       奥斯卡·伊萨克 Oscar Isaac
       安迪·瑟金斯 Andy Serkis
       露皮塔·尼永奥 Lupita Nyong'o
       多姆纳尔·格里森 Domhnall Gleeson
       安东尼·丹尼尔斯 Anthony Daniels
       格温多兰·克里斯蒂 Gwendoline Christie
       凯莉·玛丽·陈 Kelly Marie Tran
       劳拉·邓恩 Laura Dern
       本尼西奥·德尔·托罗 Benicio del Toro
       弗兰克·奥兹 Frank Oz
       比莉·洛德 Billie Lourd
       阿曼达·劳伦斯 Amanda Lawrence
       吉米·维 Jimmy Vee
       贾斯汀·塞洛克斯 Justin Theroux
       蒂姆·罗斯 Tim Rose
       汤姆·凯恩 Tom Kane
       亚德里安·埃德蒙松 Adrian Edmondson
       马克·路易斯·琼斯 Mark Lewis Jones
       赫敏·科菲尔德 Hermione Corfield
       吴青芸 Thanh Van Ngo
       诺阿·西甘 Noah Segan
       保罗·卡塞 Paul Kasey
       米凯拉·科尔 Michaela Coel
       普莉安卡·伯福德 Priyanga Burford
       纳温·乔杜里 Navin Chowdhry
       安德鲁·杰克 Andrew Jack
       克里斯塔·克拉克 Crystal Clarke
       伊川东吾 Togo Igawa
       丹尼·萨帕尼 Danny Sapani
       基兰·沙阿 Kiran Shah
       莉莉·科尔 Lily Cole
       马修·夏普 Matthew Sharp
       安迪·尼曼 Andy Nyman
       迈克尔·吉普森 Michael Jibson
       拉尔夫·伊内森 Ralph Ineson
       凯特·迪基 Kate Dickie
       杰拉德·摩纳科 Gerard Monaco
       肖娜·麦克唐纳 Shauna Macdonald
       蒂姆·斯蒂德 Tim Steed
       奥赖恩·李 Orion Lee
       乔纳斯·索塔莫 Joonas Suotamo
       杨亮 Liang Yang
       埃德加·赖特 Edgar Wright
       乔纳森·哈登 Jonathan Harden
       阿米拉·加扎拉 Amira Ghazalla
       保罗·巴泽利 Paul Bazely
       特米尔兰·巴拉耶夫 Temirlan Blaev
       杰克·格林利斯 Jack Greenlees
       西蒙·洛 Simon Lowe
       休·斯金纳 Hugh Skinner
       沃维克·戴维斯 Warwick Davis
       加里斯·爱德华斯 Gareth Edwards
       约瑟夫·高登-莱维特 Joseph Gordon-Levitt
       阿克谢·库玛尔 Akshay Kumar
       拉姆·伯格曼 Ram Bergman
       J·J·艾布拉姆斯 J.J. Abrams
       凯瑟琳·肯尼迪 Kathleen Kennedy
       约翰·威廉姆斯 John Williams
       史蒂夫·耶德林 Steve Yedlin
       鲍勃·达克萨 Bob Ducsay
       弗格斯·克莱格 Fergus Clegg
       迈克尔·卡普兰 Michael Kaplan
        Mike Lane
       瑞恩·艾伦 Ryan Allen
       米格尔·A·萨莱克 Miguel A. Salek
       迈克尔·马尔霍兰 Michael Mulholland

◎标  签 科幻 / 美国 / 太空 / 经典 / 动作 / 2017 / 史诗 / 冒险

◎简  介
  邪恶的斯努克所率领的第一秩序正以前所未有的破坏力扫荡抵抗者组织最后的力量。几经辗转,蕾伊(黛西·雷德利 Daisy Ridley 饰)终于在银河一隅找到隐居的卢克·天行者(马克·哈米尔 Mark Hamill 饰),与此同时她自身的力量也正慢慢苏醒。遭到重创的抵抗者命悬一线,为了摆脱第一秩序的追杀,芬恩(约翰·博耶加 John Boyega 饰)和萝丝(凯莉·玛丽·陈 Kelly Marie Tran 饰)逃出主舰,试图找到能令他们起死回生的人物,而好逞英雄的波(奥斯卡·伊萨克 Oscar Isaac 饰)则留下来见证着抵抗者最为危机和绝望的时刻。                                    
                                另一方面,凯洛·伦(亚当·德赖弗 Adam Driver 饰)和蕾伊的精神世界意外连通,他终将和自己的恩师卢克迎来决算的时刻……
  1. ##### MediaInfo ######
  2. General
  3. Unique ID                                : 205265995385329235942196869153424908968 (0x9A6CCAEEE46796E0B542C4C694F7A2A8)
  4. Complete name                            : Star.Wars.The.Last.Jedi.2017.BluRay.1080p.x265.10bit.2Audio-MiniHD.mkv
  5. Format                                   : Matroska
  6. Format version                           : Version 4
  7. File size                                : 6.26 GiB
  8. Duration                                 : 2 h 31 min
  9. Overall bit rate                         : 5 905 kb/s
  10. Encoded date                             : UTC 2018-06-07 11:02:32
  11. Writing application                      : mkvmerge v18.0.0 ('Apricity') 64-bit
  12. Writing library                          : libebml v1.3.5 + libmatroska v1.4.8
  13. Video
  14. ID                                       : 1
  15. Format                                   : HEVC
  16. Format/Info                              : High Efficiency Video Coding
  17. Format profile                           : Main 10@L4@Main
  18. Codec ID                                 : V_MPEGH/ISO/HEVC
  19. Duration                                 : 2 h 31 min
  20. Bit rate                                 : 4 535 kb/s
  21. Width                                    : 1 920 pixels
  22. Height                                   : 804 pixels
  23. Display aspect ratio                     : 2.40:1
  24. Frame rate mode                          : Constant
  25. Frame rate                               : 23.976 (24000/1001/53354) FPS
  26. Color space                              : YUV
  27. Chroma subsampling                       : 4:2:0
  28. Bit depth                                : 10 bits
  29. Bits/(Pixel*Frame)                       : 0.123
  30. Stream size                              : 4.81 GiB (77%)
  31. Writing library                          : x265 2.8+1-478bfe2b7673:[Windows][GCC 7.3.0][64 bit] 10bit
  32. Encoding settings                        : cpuid=533541111039 / frame-threads=3 / numa-pools=8 / wpp / no-pmode / no-pme / no-psnr / no-ssim / log-level=2 / csv / csv-log-level=0 / input-csp=1 / input-res=1920x804 / interlace=0 / total-frames=3016 / level-idc=0 / high-tier=1 / uhd-bd=0 / ref=5 / no-allow-non-conformance / no-repeat-headers / annexb / no-aud / no-hrd / info / hash=0 / no-temporal-layers / no-open-gop / min-keyint=1 / keyint=360 / gop-lookahead=0 / bframes=8 / b-adapt=2 / b-pyramid / bframe-bias=0 / rc-lookahead=40 / lookahead-slices=4 / NTMzNTQ=uuDQuD2mJt9fsCf / scenecut=40 / radl=0 / no-intra-refresh / ctu=32 / min-cu-size=8 / rect / no-amp / max-tu-size=16 / tu-inter-depth=2 / tu-intra-depth=2 / limit-tu=4 / rdoq-level=1 / dynamic-rd=0.00 / ssim-rd / signhide / no-tskip / nr-intra=0 / nr-inter=0 / no-constrained-intra / no-strong-intra-smoothing / max-merge=3 / limit-refs=2 / limit-modes / me=3 / subme=5 / merange=25 / temporal-mvp / weightp / weightb / no-analyze-src-pics / deblock=-1:-1 / no-sao / no-sao-non-deblock / rd=4 / no-early-skip / rskip / no-fast-intra / no-tskip-fast / no-cu-lossless / b-intra / no-splitrd-skip / rdpenalty=1 / psy-rd=0.00 / psy-rdoq=5.00 / no-rd-refine / no-lossless / cbqpoffs=-2 / crqpoffs=-2 / rc=crf / crf=21.0 / qcomp=0.85 / qpstep=4 / stats-write=0 / stats-read=0 / ipratio=1.40 / pbratio=1.30 / aq-mode=2 / aq-strength=0.80 / cutree / zone-count=0 / no-strict-cbr / qg-size=16 / no-rc-grain / qpmax=69 / qpmin=0 / no-const-vbv / sar=0 / overscan=0 / videoformat=5 / range=0 / colorprim=1 / transfer=2 / colormatrix=2 / chromaloc=0 / display-window=0 / max-cll=0,0 / min-luma=0 / max-luma=1023 / log2-max-poc-lsb=8 / vui-timing-info / vui-hrd-info / slices=1 / no-opt-qp-pps / no-opt-ref-list-length-pps / no-multi-pass-opt-rps / scenecut-bias=0.05 / no-opt-cu-delta-qp / no-aq-motion / no-hdr / no-hdr-opt / no-dhdr10-opt / no-idr-recovery-sei / analysis-reuse-level=5 / scale-factor=0 / refine-intra=0 / refine-inter=0 / refine-mv=0 / no-limit-sao / ctu-info=0 / no-lowpass-dct / refine-mv-type=0 / copy-pic=1 / max-ausize-factor=1.0 / no-dynamic-refine / no-single-sei
  33. Default                                  : Yes
  34. Forced                                   : No
  35. Color range                              : Limited
  36. Color primaries                          : BT.709
  37. Audio #1
  38. ID                                       : 2
  39. Format                                   : AC-3
  40. Format/Info                              : Audio Coding 3
  41. Commercial name                          : Dolby Digital
  42. Codec ID                                 : A_AC3
  43. Duration                                 : 2 h 31 min
  44. Bit rate mode                            : Constant
  45. Bit rate                                 : 640 kb/s
  46. Channel(s)                               : 6 channels
  47. Channel layout                           : L R C LFE Ls Rs
  48. Sampling rate                            : 48.0 kHz
  49. Frame rate                               : 31.250 FPS (1536 SPF)
  50. Compression mode                         : Lossy
  51. Stream size                              : 695 MiB (11%)
  52. Language                                 : English
  53. Service kind                             : Complete Main
  54. Default                                  : Yes
  55. Forced                                   : No
  56. Audio #2
  57. ID                                       : 3
  58. Format                                   : AC-3
  59. Format/Info                              : Audio Coding 3
  60. Commercial name                          : Dolby Digital
  61. Codec ID                                 : A_AC3
  62. Duration                                 : 2 h 31 min
  63. Bit rate mode                            : Constant
  64. Bit rate                                 : 640 kb/s
  65. Channel(s)                               : 6 channels
  66. Channel layout                           : L R C LFE Ls Rs
  67. Sampling rate                            : 48.0 kHz
  68. Frame rate                               : 31.250 FPS (1536 SPF)
  69. Compression mode                         : Lossy
  70. Stream size                              : 695 MiB (11%)
  71. Title                                    : 公映国语
  72. Language                                 : Chinese
  73. Service kind                             : Complete Main
  74. Default                                  : No
  75. Forced                                   : No
  76. Text #1
  77. ID                                       : 4
  78. Format                                   : PGS
  79. Muxing mode                              : zlib
  80. Codec ID                                 : S_HDMV/PGS
  81. Codec ID/Info                            : Picture based subtitle format used on BDs/HD-DVDs
  82. Duration                                 : 2 h 23 min
  83. Bit rate                                 : 30.9 kb/s
  84. Count of elements                        : 3796
  85. Stream size                              : 31.7 MiB (0%)
  86. Title                                    : 英文
  87. Language                                 : English
  88. Default                                  : No
  89. Forced                                   : No
  90. Text #2
  91. ID                                       : 5
  92. Format                                   : PGS
  93. Muxing mode                              : zlib
  94. Codec ID                                 : S_HDMV/PGS
  95. Codec ID/Info                            : Picture based subtitle format used on BDs/HD-DVDs
  96. Duration                                 : 2 h 31 min
  97. Bit rate                                 : 45.9 kb/s
  98. Count of elements                        : 4339
  99. Stream size                              : 49.8 MiB (1%)
  100. Title                                    : 国配简中
  101. Language                                 : Chinese
  102. Default                                  : Yes
  103. Forced                                   : No
  104. Text #3
  105. ID                                       : 6
  106. Format                                   : PGS
  107. Muxing mode                              : zlib
  108. Codec ID                                 : S_HDMV/PGS
  109. Codec ID/Info                            : Picture based subtitle format used on BDs/HD-DVDs
  110. Duration                                 : 2 h 31 min
  111. Bit rate                                 : 68.7 kb/s
  112. Count of elements                        : 4544
  113. Stream size                              : 74.6 MiB (1%)
  114. Title                                    : 中英双语
  115. Language                                 : Chinese
  116. Default                                  : No
  117. Forced                                   : No
  118. Text #4
  119. ID                                       : 7
  120. Format                                   : PGS
  121. Muxing mode                              : zlib
  122. Codec ID                                 : S_HDMV/PGS
  123. Codec ID/Info                            : Picture based subtitle format used on BDs/HD-DVDs
  124. Duration                                 : 2 h 22 min
  125. Bit rate                                 : 21.2 kb/s
  126. Count of elements                        : 3286
  127. Stream size                              : 21.7 MiB (0%)
  128. Title                                    : 原盘简体
  129. Language                                 : Chinese
  130. Default                                  : No
  131. Forced                                   : No
  132. Text #5
  133. ID                                       : 8
  134. Format                                   : PGS
  135. Muxing mode                              : zlib
  136. Codec ID                                 : S_HDMV/PGS
  137. Codec ID/Info                            : Picture based subtitle format used on BDs/HD-DVDs
  138. Duration                                 : 2 h 22 min
  139. Bit rate                                 : 22.2 kb/s
  140. Count of elements                        : 3288
  141. Stream size                              : 22.6 MiB (0%)
  142. Title                                    : 原盘繁体
  143. Language                                 : Chinese
  144. Default                                  : No
  145. Forced                                   : No
  146. Menu
  147. 00:00:00.000                             : en:Chapter 01
  148. 00:00:18.643                             : en:Chapter 02
  149. 00:01:45.730                             : en:Chapter 03
  150. 00:03:11.816                             : en:Chapter 04
  151. 00:07:43.296                             : en:Chapter 05
  152. 00:12:48.434                             : en:Chapter 06
  153. 00:13:44.573                             : en:Chapter 07
  154. 00:16:29.279                             : en:Chapter 08
  155. 00:19:59.281                             : en:Chapter 09
  156. 00:22:51.369                             : en:Chapter 10
  157. 00:26:04.980                             : en:Chapter 11
  158. 00:27:22.849                             : en:Chapter 12
  159. 00:31:24.757                             : en:Chapter 13
  160. 00:32:54.681                             : en:Chapter 14
  161. 00:35:27.667                             : en:Chapter 15
  162. 00:38:11.497                             : en:Chapter 16
  163. 00:41:53.427                             : en:Chapter 17
  164. 00:44:29.541                             : en:Chapter 18
  165. 00:46:51.475                             : en:Chapter 19
  166. 00:51:41.932                             : en:Chapter 20
  167. 00:53:50.060                             : en:Chapter 21
  168. 00:55:41.504                             : en:Chapter 22
  169. 00:57:39.581                             : en:Chapter 23
  170. 00:59:16.636                             : en:Chapter 24
  171. 01:02:05.847                             : en:Chapter 25
  172. 01:03:07.700                             : en:Chapter 26
  173. 01:05:41.729                             : en:Chapter 27
  174. 01:07:03.477                             : en:Chapter 28
  175. 01:10:25.721                             : en:Chapter 29
  176. 01:13:30.322                             : en:Chapter 30
  177. 01:17:43.450                             : en:Chapter 31
  178. 01:20:53.056                             : en:Chapter 32
  179. 01:24:17.969                             : en:Chapter 33
  180. 01:26:23.219                             : en:Chapter 34
  181. 01:27:59.524                             : en:Chapter 35
  182. 01:30:49.360                             : en:Chapter 36
  183. 01:32:54.568                             : en:Chapter 37
  184. 01:35:53.706                             : en:Chapter 38
  185. 01:37:10.616                             : en:Chapter 39
  186. 01:39:12.863                             : en:Chapter 40
  187. 01:42:07.663                             : en:Chapter 41
  188. 01:45:03.714                             : en:Chapter 42
  189. 01:49:35.694                             : en:Chapter 43
  190. 01:52:20.608                             : en:Chapter 44
  191. 01:56:04.749                             : en:Chapter 45
  192. 01:58:52.083                             : en:Chapter 46
  193. 02:03:11.133                             : en:Chapter 47
  194. 02:06:39.758                             : en:Chapter 48
  195. 02:11:43.604                             : en:Chapter 49
  196. 02:15:12.103                             : en:Chapter 50
  197. 02:20:16.699                             : en:Chapter 51
  198. 02:23:39.694                             : en:Chapter 52





此处一般会放置磁力链或种子下载链接,不过此链接需要注册会员才能看到,点击“立即注册”
磁力链下载【下载链接仅对注册会员开放,登陆后可见】
BT9527电影天堂 1、BT9527电影天堂提供的BT文件均来源于互联网抓取,只供网友学习交流、技术提升使用。
2、我们遵守BitTorrent点对点协议原则,任何版权问题请联系原资源发布商,我们不处理任何版权纠纷,谢谢!如有争议请联系邮箱:BT9527#hotmail.com(#换成@)
3、如果您发现某页面或地址有错误,请联系站长邮箱BT9527#hotmail.com(#换成@),我们会尽快处理。您的热心是对BT9527电影天堂最大的支持。
4、本站建议去正规影院观看电影以支持电影行业发展。
最新回复 (0)

你可以在 登录 or 注册 后,对此帖发表评论!

返回
发新帖