极寒之城[简繁英字幕].Atomic.Blonde.2017.BluRay.1080p.x265.10bit-MiniHD 5.13GB

版主小s 5月前 258

✔资源类型:暂未分类   ✔电影年份:2017   ✔电影地区:欧美   ✔电影分类:动作

◎标  题 极寒之城
◎译  名 极冻之城(台) / 原子杀姬(港) / 原子美人 / 最冷的城市 / The Coldest City
◎片  名 Atomic Blonde
◎年  代 2017
◎产  地 美国 / 德国 / 瑞典 / 匈牙利
◎类  别 动作 / 惊悚
◎语  言 英语 / 德语 / 俄语 / 瑞典语
◎上映日期 2017-03-12(西南偏南电影节) / 2017-07-28(美国)
◎IMDb评分 6.7/10 (185912人评价)
◎IMDb链接 https://www.imdb.com/title/tt2406566/
◎豆瓣评分 7.2/10 (63077人评价)
◎豆瓣链接 https://movie.douban.com/subject/26386034/
◎片  长 115分钟
◎导  演 大卫·雷奇 David Leitch
◎编  剧 库尔特·约恩斯塔德 Kurt Johnstad
       安东尼·约翰逊 Antony Johnston
       萨姆·哈特 Sam Hart
◎演  员 查理兹·塞隆 Charlize Theron
       詹姆斯·麦卡沃伊 James McAvoy
       埃迪·马森 Eddie Marsan
       约翰·古德曼 John Goodman
       托比·琼斯 Toby Jones
       詹姆斯·福克纳 James Faulkner
       罗兰·默勒 Roland Møller
       索菲亚·波多拉 Sofia Boutella
       比尔·斯卡斯加德 Bill Skarsgård
       山姆·哈格雷夫 Sam Hargrave
       约翰内斯·豪克尔·约翰内森 Jóhannes Haukur Jóhannesson
       蒂尔·施威格 Til Schweiger
       巴巴拉·苏科瓦 Barbara Sukowa
       阿提拉·阿帕 Attila Árpa
       马丁·安格鲍尔 Martin Angerbauer
       莉莉·格斯勒 Lili Gesler
       丹尼尔·哈格里夫 Daniel Hargrave
       丹尼尔·伯哈特 Daniel Bernhardt

◎标  签 动作 / 特工 / 间谍 / 美国 / 冷战 / 悬疑 / 女性 / 2017

◎简  介
    影片根据安东尼·约翰斯顿(Antony Johnston)的同名小说改编,讲述了“冷战”结束前的间谍行动:1989年,民主德国局势发生急剧变化,“柏林墙”面临拆除的命运,但此时也是最黑暗的时刻,各种暗杀行动时有发生。一位英国军情六处的地下官员在柏林遇刺,他掌握了从民主德国带回来的一份间谍名单,但杀手在他身上并未找到。一位名叫洛林·布劳顿(塞隆 饰)的特工,肩负起找回这份间谍名单的任务。                                    
                                  此前曾报道,导演雷奇和斯塔尔斯基将会拍摄《疾速追杀》续集,基努·里维斯在内的主演均将回归。但在拍摄该片之前,两人会先着手将这部女性角色挑大梁的动作惊悚片搬上银幕。
  1. ##### MediaInfo ######
  2. General
  3. Unique ID                                : 230063293299810709576566112800519248811 (0xAD14941CF8484A578F3961C58DE05BAB)
  4. Complete name                            : Atomic.Blonde.2017.BluRay.1080p.x265.10bit-MiniHD.mkv
  5. Format                                   : Matroska
  6. Format version                           : Version 4
  7. File size                                : 5.13 GiB
  8. Duration                                 : 1 h 54 min
  9. Overall bit rate                         : 6 397 kb/s
  10. Encoded date                             : UTC 2017-12-12 11:05:08
  11. Writing application                      : mkvmerge v18.0.0 ('Apricity') 64-bit
  12. Writing library                          : libebml v1.3.5 + libmatroska v1.4.8
  13. Video
  14. ID                                       : 1
  15. Format                                   : HEVC
  16. Format/Info                              : High Efficiency Video Coding
  17. Format profile                           : Main 10@L4@Main
  18. Codec ID                                 : V_MPEGH/ISO/HEVC
  19. Duration                                 : 1 h 54 min
  20. Bit rate                                 : 5 545 kb/s
  21. Width                                    : 1 920 pixels
  22. Height                                   : 804 pixels
  23. Display aspect ratio                     : 2.40:1
  24. Frame rate mode                          : Constant
  25. Frame rate                               : 23.976 (24000/1001/53354) FPS
  26. Color space                              : YUV
  27. Chroma subsampling                       : 4:2:0
  28. Bit depth                                : 10 bits
  29. Bits/(Pixel*Frame)                       : 0.150
  30. Stream size                              : 4.44 GiB (87%)
  31. Title                                    : Video.HEVC
  32. Writing library                          : x265 2.6+12-7bd8751a8183:[Windows][MSVC 1912][64 bit] 10bit
  33. Encoding settings                        : cpuid=533541173503 / frame-threads=4 / numa-pools=16 / wpp / no-pmode / no-pme / no-psnr / no-ssim / log-level=2 / csvfn=D:\Video\m2ts\Atomic / Blonde\265.log / csv-log-level=0 / input-csp=1 / input-res=1920x804 / interlace=0 / total-frames=0 / level-idc=0 / high-tier=1 / uhd-bd=0 / ref=5 / no-allow-non-conformance / no-repeat-headers / annexb / no-aud / no-hrd / info / hash=0 / no-temporal-layers / no-open-gop / min-keyint=1 / keyint=360 / gop-lookahead=0 / bframes=10 / b-adapt=2 / b-pyramid / bframe-bias=0 / rc-lookahead=60 / lookahead-slices=4 / NTMzNTQ=uuDQuD2mJt9fsCf / scenecut=40 / no-intra-refresh / ctu=32 / min-cu-size=8 / no-rect / no-amp / max-tu-size=16 / tu-inter-depth=2 / tu-intra-depth=2 / limit-tu=4 / rdoq-level=2 / dynamic-rd=0.00 / ssim-rd / signhide / no-tskip / nr-intra=0 / nr-inter=0 / no-constrained-intra / no-strong-intra-smoothing / max-merge=3 / limit-refs=2 / limit-modes / me=3 / subme=5 / merange=25 / temporal-mvp / weightp / weightb / no-analyze-src-pics / deblock=-1:-1 / no-sao / no-sao-non-deblock / rd=4 / no-early-skip / rskip / no-fast-intra / no-tskip-fast / no-cu-lossless / b-intra / no-splitrd-skip / rdpenalty=1 / psy-rd=1.50 / psy-rdoq=1.80 / no-rd-refine / analysis-reuse-mode=0 / no-lossless / cbqpoffs=-2 / crqpoffs=-2 / rc=crf / crf=19.0 / qcomp=0.68 / qpstep=4 / stats-write=0 / stats-read=0 / ipratio=1.40 / pbratio=1.30 / aq-mode=3 / aq-strength=0.72 / cutree / zone-count=0 / no-strict-cbr / qg-size=16 / no-rc-grain / qpmax=69 / qpmin=0 / no-const-vbv / sar=0 / overscan=0 / videoformat=5 / range=0 / colorprim=1 / transfer=2 / colormatrix=2 / chromaloc=0 / display-window=0 / max-cll=0,0 / min-luma=0 / max-luma=1023 / log2-max-poc-lsb=8 / vui-timing-info / vui-hrd-info / slices=1 / no-opt-qp-pps / no-opt-ref-list-length-pps / no-multi-pass-opt-rps / scenecut-bias=0.05 / no-opt-cu-delta-qp / no-aq-motion / no-hdr / no-hdr-opt / no-dhdr10-opt / analysis-reuse-level=5 / scale-factor=0 / refine-intra=0 / refine-inter=0 / refine-mv=0 / no-limit-sao / ctu-info=0 / no-lowpass-dct / refine-mv-type=0 / copy-pic=1
  34. Default                                  : Yes
  35. Forced                                   : No
  36. Color range                              : Limited
  37. Color primaries                          : BT.709
  38. Audio
  39. ID                                       : 2
  40. Format                                   : AC-3
  41. Format/Info                              : Audio Coding 3
  42. Commercial name                          : Dolby Digital
  43. Codec ID                                 : A_AC3
  44. Duration                                 : 1 h 54 min
  45. Bit rate mode                            : Constant
  46. Bit rate                                 : 640 kb/s
  47. Channel(s)                               : 6 channels
  48. Channel layout                           : L R C LFE Ls Rs
  49. Sampling rate                            : 48.0 kHz
  50. Frame rate                               : 31.250 FPS (1536 SPF)
  51. Compression mode                         : Lossy
  52. Stream size                              : 525 MiB (10%)
  53. Title                                    : Sound.AC3-5.1
  54. Language                                 : English
  55. Service kind                             : Complete Main
  56. Default                                  : Yes
  57. Forced                                   : No
  58. Text #1
  59. ID                                       : 3
  60. Format                                   : PGS
  61. Codec ID                                 : S_HDMV/PGS
  62. Codec ID/Info                            : Picture based subtitle format used on BDs/HD-DVDs
  63. Duration                                 : 1 h 48 min
  64. Bit rate                                 : 56.0 kb/s
  65. Count of elements                        : 2698
  66. Stream size                              : 43.5 MiB (1%)
  67. Title                                    : 简英双语.sup
  68. Default                                  : Yes
  69. Forced                                   : No
  70. Text #2
  71. ID                                       : 4
  72. Format                                   : PGS
  73. Codec ID                                 : S_HDMV/PGS
  74. Codec ID/Info                            : Picture based subtitle format used on BDs/HD-DVDs
  75. Duration                                 : 1 h 48 min
  76. Bit rate                                 : 57.6 kb/s
  77. Count of elements                        : 2698
  78. Stream size                              : 44.7 MiB (1%)
  79. Title                                    : 繁英双语.sup
  80. Default                                  : No
  81. Forced                                   : No
  82. Text #3
  83. ID                                       : 5
  84. Format                                   : PGS
  85. Codec ID                                 : S_HDMV/PGS
  86. Codec ID/Info                            : Picture based subtitle format used on BDs/HD-DVDs
  87. Duration                                 : 1 h 48 min
  88. Bit rate                                 : 37.7 kb/s
  89. Count of elements                        : 2698
  90. Stream size                              : 29.3 MiB (1%)
  91. Title                                    : 简体中文.sup
  92. Language                                 : Chinese
  93. Default                                  : No
  94. Forced                                   : No
  95. Text #4
  96. ID                                       : 6
  97. Format                                   : PGS
  98. Codec ID                                 : S_HDMV/PGS
  99. Codec ID/Info                            : Picture based subtitle format used on BDs/HD-DVDs
  100. Duration                                 : 1 h 48 min
  101. Bit rate                                 : 39.1 kb/s
  102. Count of elements                        : 2698
  103. Stream size                              : 30.3 MiB (1%)
  104. Title                                    : 繁体中文.sup
  105. Language                                 : Chinese
  106. Default                                  : No
  107. Forced                                   : No
  108. Text #5
  109. ID                                       : 7
  110. Format                                   : PGS
  111. Codec ID                                 : S_HDMV/PGS
  112. Codec ID/Info                            : Picture based subtitle format used on BDs/HD-DVDs
  113. Duration                                 : 1 h 47 min
  114. Bit rate                                 : 31.5 kb/s
  115. Count of elements                        : 2411
  116. Stream size                              : 24.3 MiB (0%)
  117. Title                                    : ENGLISH.sup
  118. Language                                 : English
  119. Default                                  : No
  120. Forced                                   : No
  121. Menu
  122. 00:00:00.000                             : en:Chapter 01
  123. 00:06:47.991                             : en:Chapter 02
  124. 00:11:03.162                             : en:Chapter 03
  125. 00:18:17.221                             : en:Chapter 04
  126. 00:24:15.579                             : en:Chapter 05
  127. 00:27:47.165                             : en:Chapter 06
  128. 00:32:50.010                             : en:Chapter 07
  129. 00:36:20.095                             : en:Chapter 08
  130. 00:40:46.152                             : en:Chapter 09
  131. 00:47:55.664                             : en:Chapter 10
  132. 00:53:13.482                             : en:Chapter 11
  133. 00:59:54.090                             : en:Chapter 12
  134. 01:03:32.767                             : en:Chapter 13
  135. 01:08:03.788                             : en:Chapter 14
  136. 01:10:52.415                             : en:Chapter 15
  137. 01:18:27.453                             : en:Chapter 16
  138. 01:24:28.272                             : en:Chapter 17
  139. 01:32:44.267                             : en:Chapter 18
  140. 01:42:06.245                             : en:Chapter 19
  141. 01:48:21.078                             : en:Chapter 20
  142. 01:54:44.044                             : en:Chapter 21





此处一般会放置磁力链或种子下载链接,不过此链接需要注册会员才能看到,点击“立即注册”
磁力链下载【下载链接仅对注册会员开放,登陆后可见】
BT9527电影天堂 1、BT9527电影天堂提供的BT文件均来源于互联网抓取,只供网友学习交流、技术提升使用。
2、我们遵守BitTorrent点对点协议原则,任何版权问题请联系原资源发布商,我们不处理任何版权纠纷,谢谢!如有争议请联系邮箱:BT9527#hotmail.com(#换成@)
3、如果您发现某页面或地址有错误,请联系站长邮箱BT9527#hotmail.com(#换成@),我们会尽快处理。您的热心是对BT9527电影天堂最大的支持。
4、本站建议去正规影院观看电影以支持电影行业发展。
最新回复 (0)

你可以在 登录 or 注册 后,对此帖发表评论!

返回
发新帖