求救信号[中文字幕].Mayday.2021.1080p.BluRay.DTS.x265-10bit-ENTHD 6.39GB

版主小s 5月前 231

✔资源类型:暂未分类   ✔电影年份:2021   ✔电影地区:欧美   ✔电影分类:剧情

◎标  题 求救信号
◎片  名 Mayday
◎年  代 2021
◎产  地 美国
◎类  别 剧情 / 奇幻
◎语  言 英语
◎上映日期 2021-01-31(圣丹斯电影节) / 2021-10-01(美国)
◎IMDb评分 4.2/10 (654人评价)
◎IMDb链接 https://www.imdb.com/title/tt11271800/
◎豆瓣评分 6.4/10 (77人评价)
◎豆瓣链接 https://movie.douban.com/subject/34888510/
◎导  演 凯伦·西诺雷 Karen Cinorre
◎编  剧 凯伦·西诺雷 Karen Cinorre
◎演  员 朱丽叶特·刘易斯 Juliette Lewis
       格蕾丝·范帕滕 Grace Van Patten
       米娅·高斯 Mia Goth
       斯蒂芬妮·索科琳斯基 Stéphanie Sokolinski
       Havana Rose Liu Havana Rose Liu

◎标  签 奇幻 / 剧情 / 2021 / 文艺 / 女性 / 美国 / 女权 / 鹿特丹

◎简  介
    朱丽叶特·刘易斯、格蕾丝·范·帕滕、米娅·高斯将出演以女性为主导的奇幻动作片[求救信号](Mayday,暂译)。本片是导演兼编剧Karen Cinorre的处女作,目前正在拍摄中。故事讲述了一个名叫安娜(范·帕滕饰)的年轻女子被送到了一个梦幻而危险的地方,在那里她加入了一群女兵,在崎岖的海岸上进行着一场永无休止的战争。虽然她在这个令人振奋的世界中找到了力量,但她意识到她并不是他们希望她成为的杀手,所以她必须使用她的新生力量来试图战胜她的生活。
  1. ##### MediaInfo ######
  2. General
  3. Unique ID                                : 330995215374193994347571684314013760157 (0xF9035C1395231C920552F2042B3FFA9D)
  4. Complete name                            : Mayday.2021.1080p.BluRay.DTS.x265-10bit-ENTHD.mkv
  5. Format                                   : Matroska
  6. Format version                           : Version 4
  7. File size                                : 6.39 GiB
  8. Duration                                 : 1 h 39 min
  9. Overall bit rate                         : 9 174 kb/s
  10. Movie name                               : Mayday 2021 1080p BluRay DTS x265-10bit-HDS
  11. Encoded date                             : UTC 2022-06-23 23:00:41
  12. Writing application                      : mkvmerge v67.0.0 ('Under Stars') 64-bit
  13. Writing library                          : libebml v1.4.2 + libmatroska v1.6.4
  14. Video
  15. ID                                       : 1
  16. Format                                   : HEVC
  17. Format/Info                              : High Efficiency Video Coding
  18. Format profile                           : Main 10@L5.1@High
  19. Codec ID                                 : V_MPEGH/ISO/HEVC
  20. Duration                                 : 1 h 39 min
  21. Bit rate                                 : 7 613 kb/s
  22. Width                                    : 1 920 pixels
  23. Height                                   : 804 pixels
  24. Display aspect ratio                     : 2.40:1
  25. Frame rate mode                          : Constant
  26. Frame rate                               : 23.976 (24000/1001/53354) FPS
  27. Color space                              : YUV
  28. Chroma subsampling                       : 4:2:0
  29. Bit depth                                : 10 bits
  30. Bits/(Pixel*Frame)                       : 0.206
  31. Stream size                              : 5.30 GiB (83%)
  32. Title                                    : @HDSky
  33. Writing library                          : x265 - H.265/HEVC codec
  34. Default                                  : Yes
  35. Forced                                   : No
  36. Audio
  37. ID                                       : 2
  38. Format                                   : DTS
  39. Format/Info                              : Digital Theater Systems
  40. Codec ID                                 : A_DTS
  41. Duration                                 : 1 h 39 min
  42. Bit rate mode                            : Constant
  43. Bit rate                                 : 1 509 kb/s
  44. Channel(s)                               : 6 channels
  45. Channel layout                           : C L R Ls Rs LFE
  46. Sampling rate                            : 48.0 kHz
  47. Frame rate                               : 93.750 FPS (512 SPF)
  48. Bit depth                                : 24 bits
  49. Compression mode                         : Lossy
  50. Stream size                              : 1.05 GiB (16%)
  51. Title                                    : English
  52. Language                                 : English
  53. Default                                  : Yes
  54. Forced                                   : No
  55. Text #1
  56. ID                                       : 3
  57. Format                                   : PGS
  58. Muxing mode                              : zlib
  59. Codec ID                                 : S_HDMV/PGS
  60. Codec ID/Info                            : Picture based subtitle format used on BDs/HD-DVDs
  61. Duration                                 : 1 h 38 min
  62. Bit rate                                 : 15.0 kb/s
  63. Count of elements                        : 1766
  64. Stream size                              : 10.6 MiB (0%)
  65. Title                                    : CHS
  66. Language                                 : Chinese
  67. Default                                  : Yes
  68. Forced                                   : No
  69. Text #2
  70. ID                                       : 4
  71. Format                                   : PGS
  72. Muxing mode                              : zlib
  73. Codec ID                                 : S_HDMV/PGS
  74. Codec ID/Info                            : Picture based subtitle format used on BDs/HD-DVDs
  75. Duration                                 : 1 h 38 min
  76. Bit rate                                 : 15.6 kb/s
  77. Count of elements                        : 1766
  78. Stream size                              : 11.0 MiB (0%)
  79. Title                                    : CHT
  80. Language                                 : Chinese
  81. Default                                  : Yes
  82. Forced                                   : No
  83. Text #3
  84. ID                                       : 5
  85. Format                                   : PGS
  86. Muxing mode                              : zlib
  87. Codec ID                                 : S_HDMV/PGS
  88. Codec ID/Info                            : Picture based subtitle format used on BDs/HD-DVDs
  89. Duration                                 : 1 h 38 min
  90. Bit rate                                 : 24.1 kb/s
  91. Count of elements                        : 1768
  92. Stream size                              : 17.1 MiB (0%)
  93. Title                                    : CHS&ENG
  94. Language                                 : Chinese
  95. Default                                  : Yes
  96. Forced                                   : No
  97. Text #4
  98. ID                                       : 6
  99. Format                                   : PGS
  100. Muxing mode                              : zlib
  101. Codec ID                                 : S_HDMV/PGS
  102. Codec ID/Info                            : Picture based subtitle format used on BDs/HD-DVDs
  103. Duration                                 : 1 h 38 min
  104. Bit rate                                 : 24.7 kb/s
  105. Count of elements                        : 1768
  106. Stream size                              : 17.5 MiB (0%)
  107. Title                                    : CHT&ENG
  108. Language                                 : Chinese
  109. Default                                  : Yes
  110. Forced                                   : No
  111. Menu
  112. 00:00:00.000                             : en:第 01 章
  113. 00:08:35.515                             : en:第 02 章
  114. 00:14:36.876                             : en:第 03 章
  115. 00:20:59.258                             : en:第 04 章
  116. 00:28:39.718                             : en:第 05 章
  117. 00:38:26.304                             : en:第 06 章
  118. 00:45:46.744                             : en:第 07 章
  119. 00:51:46.103                             : en:第 08 章
  120. 00:58:56.533                             : en:第 09 章
  121. 01:06:26.983                             : en:第 10 章
  122. 01:14:19.455                             : en:第 11 章
  123. 01:23:18.994                             : en:第 12 章
  124. 01:33:35.610                             : en:第 13 章





此处一般会放置磁力链或种子下载链接,不过此链接需要注册会员才能看到,点击“立即注册”
磁力链下载【下载链接仅对注册会员开放,登陆后可见】
BT9527电影天堂 1、BT9527电影天堂提供的BT文件均来源于互联网抓取,只供网友学习交流、技术提升使用。
2、我们遵守BitTorrent点对点协议原则,任何版权问题请联系原资源发布商,我们不处理任何版权纠纷,谢谢!如有争议请联系邮箱:BT9527#hotmail.com(#换成@)
3、如果您发现某页面或地址有错误,请联系站长邮箱BT9527#hotmail.com(#换成@),我们会尽快处理。您的热心是对BT9527电影天堂最大的支持。
4、本站建议去正规影院观看电影以支持电影行业发展。
最新回复 (0)

你可以在 登录 or 注册 后,对此帖发表评论!

返回