工具箱杀手[简繁英字幕].The.Toolbox.Murders.1978.2160p.HDR.UHD.BluRay.TrueHD.7.1.Atmos.x265-10bit-ENTHD 16.86GB

版主小s 5月前 219

✔资源类型:BD-4K   ✔电影年份:更 早   ✔电影地区:欧美   ✔电影分类:惊悚

◎标  题 工具箱杀手
◎片  名 The Toolbox Murders
◎年  代 1978
◎产  地 美国
◎类  别 惊悚 / 恐怖
◎语  言 英语
◎上映日期 1978-03-03(美国)
◎IMDb链接 https://www.imdb.com/title/tt0078405/
◎豆瓣链接 https://movie.douban.com/subject/2174074/
◎片  长 93 分钟

◎简  介
    托比·霍珀指导、安吉拉·贝蒂斯主演的美国恐怖电影。                                    
                                  电影讲述了在好莱坞的一家老旧饭店“鲁斯曼·阿姆斯公寓”中发生的灵异事件,在屋主准备装修饭店时发生了人们只能进却无法出饭店的事情。
  1. ##### MediaInfo ######
  2. General
  3. Unique ID                                : 327723261774572348895873885956407420280 (0xF68D344F20A6FEBC26401750F9F9E578)
  4. Complete name                            : The.Toolbox.Murders.1978.2160p.HDR.UHD.BluRay.TrueHD.7.1.Atmos.x265-10bit-ENTHD.mkv
  5. Format                                   : Matroska
  6. Format version                           : Version 4
  7. File size                                : 16.9 GiB
  8. Duration                                 : 1 h 33 min
  9. Overall bit rate mode                    : Variable
  10. Overall bit rate                         : 25.7 Mb/s
  11. Movie name                               : The Toolbox Murders 1978 2160p HDR UHD BluRay TrueHD 7.1 Atmos x265-10bit-HDS
  12. Encoded date                             : UTC 2022-06-23 10:37:28
  13. Writing application                      : mkvmerge v67.0.0 ('Under Stars') 64-bit
  14. Writing library                          : libebml v1.4.2 + libmatroska v1.6.4
  15. Video
  16. ID                                       : 1
  17. Format                                   : HEVC
  18. Format/Info                              : High Efficiency Video Coding
  19. Format profile                           : Main 10@L6.1@High
  20. HDR format                               : SMPTE ST 2086, HDR10 compatible
  21. Codec ID                                 : V_MPEGH/ISO/HEVC
  22. Duration                                 : 1 h 33 min
  23. Bit rate                                 : 21.4 Mb/s
  24. Width                                    : 3 584 pixels
  25. Height                                   : 2 160 pixels
  26. Display aspect ratio                     : 5:3
  27. Frame rate mode                          : Constant
  28. Frame rate                               : 23.976 (24000/1001/53354) FPS
  29. Color space                              : YUV
  30. Chroma subsampling                       : 4:2:0
  31. Bit depth                                : 10 bits
  32. Bits/(Pixel*Frame)                       : 0.115
  33. Stream size                              : 14.0 GiB (83%)
  34. Title                                    : @HDSky
  35. Writing library                          : x265 - H.265/HEVC codec
  36. Default                                  : Yes
  37. Forced                                   : No
  38. Color range                              : Limited
  39. Color primaries                          : BT.2020
  40. Transfer characteristics                 : PQ
  41. Matrix coefficients                      : BT.2020 non-constant
  42. Mastering display color primaries        : BT.2020
  43. Mastering display luminance              : min: 0.0001 cd/m2, max: 1000 cd/m2
  44. Maximum Content Light Level              : 1000 cd/m2
  45. Maximum Frame-Average Light Level        : 613 cd/m2
  46. Audio #1
  47. ID                                       : 2
  48. Format                                   : MLP FBA 16-ch
  49. Format/Info                              : Meridian Lossless Packing FBA with 16-channel presentation
  50. Commercial name                          : Dolby TrueHD with Dolby Atmos
  51. Codec ID                                 : A_TRUEHD
  52. Duration                                 : 1 h 33 min
  53. Bit rate mode                            : Variable
  54. Bit rate                                 : 3 563 kb/s
  55. Maximum bit rate                         : 5 163 kb/s
  56. Channel(s)                               : 8 channels
  57. Channel layout                           : L R C LFE Ls Rs Lb Rb
  58. Sampling rate                            : 48.0 kHz
  59. Frame rate                               : 1 200.000 FPS (40 SPF)
  60. Compression mode                         : Lossless
  61. Stream size                              : 2.34 GiB (14%)
  62. Title                                    : English
  63. Language                                 : English
  64. Default                                  : Yes
  65. Forced                                   : No
  66. Number of dynamic objects                : 11
  67. Bed channel count                        : 1 channel
  68. Bed channel configuration                : LFE
  69. Audio #2
  70. ID                                       : 3
  71. Format                                   : AC-3
  72. Format/Info                              : Audio Coding 3
  73. Commercial name                          : Dolby Digital
  74. Codec ID                                 : A_AC3
  75. Duration                                 : 1 h 33 min
  76. Bit rate mode                            : Constant
  77. Bit rate                                 : 640 kb/s
  78. Channel(s)                               : 6 channels
  79. Channel layout                           : L R C LFE Ls Rs
  80. Sampling rate                            : 48.0 kHz
  81. Frame rate                               : 31.250 FPS (1536 SPF)
  82. Compression mode                         : Lossy
  83. Stream size                              : 430 MiB (2%)
  84. Service kind                             : Complete Main
  85. Default                                  : Yes
  86. Forced                                   : No
  87. Text #1
  88. ID                                       : 4
  89. Format                                   : PGS
  90. Muxing mode                              : zlib
  91. Codec ID                                 : S_HDMV/PGS
  92. Codec ID/Info                            : Picture based subtitle format used on BDs/HD-DVDs
  93. Duration                                 : 1 h 28 min
  94. Bit rate                                 : 33.5 kb/s
  95. Count of elements                        : 1968
  96. Stream size                              : 21.3 MiB (0%)
  97. Title                                    : ENG
  98. Language                                 : English
  99. Default                                  : Yes
  100. Forced                                   : No
  101. Text #2
  102. ID                                       : 5
  103. Format                                   : PGS
  104. Muxing mode                              : zlib
  105. Codec ID                                 : S_HDMV/PGS
  106. Codec ID/Info                            : Picture based subtitle format used on BDs/HD-DVDs
  107. Duration                                 : 1 h 30 min
  108. Bit rate                                 : 25.2 kb/s
  109. Count of elements                        : 1682
  110. Stream size                              : 16.3 MiB (0%)
  111. Title                                    : CHS
  112. Language                                 : Chinese
  113. Default                                  : Yes
  114. Forced                                   : No
  115. Text #3
  116. ID                                       : 6
  117. Format                                   : PGS
  118. Muxing mode                              : zlib
  119. Codec ID                                 : S_HDMV/PGS
  120. Codec ID/Info                            : Picture based subtitle format used on BDs/HD-DVDs
  121. Duration                                 : 1 h 30 min
  122. Bit rate                                 : 25.7 kb/s
  123. Count of elements                        : 1682
  124. Stream size                              : 16.6 MiB (0%)
  125. Title                                    : CHT
  126. Language                                 : Chinese
  127. Default                                  : Yes
  128. Forced                                   : No
  129. Menu
  130. 00:00:00.000                             : en:第 01 章
  131. 00:04:22.720                             : en:第 02 章
  132. 00:08:35.472                             : en:第 03 章
  133. 00:12:18.278                             : en:第 04 章
  134. 00:15:59.165                             : en:第 05 章
  135. 00:21:36.920                             : en:第 06 章
  136. 00:28:15.567                             : en:第 07 章
  137. 00:33:18.829                             : en:第 08 章
  138. 00:36:52.626                             : en:第 09 章
  139. 00:45:54.751                             : en:第 10 章
  140. 00:50:05.418                             : en:第 11 章
  141. 01:00:55.360                             : en:第 12 章
  142. 01:04:15.393                             : en:第 13 章
  143. 01:07:37.510                             : en:第 14 章
  144. 01:11:49.846                             : en:第 15 章
  145. 01:17:22.554                             : en:第 16 章
  146. 01:24:38.823                             : en:第 17 章
  147. 01:28:00.692                             : en:第 18 章
  148. 01:30:43.520                             : en:第 19 章





此处一般会放置磁力链或种子下载链接,不过此链接需要注册会员才能看到,点击“立即注册”
磁力链下载【下载链接仅对注册会员开放,登陆后可见】
BT9527电影天堂 1、BT9527电影天堂提供的BT文件均来源于互联网抓取,只供网友学习交流、技术提升使用。
2、我们遵守BitTorrent点对点协议原则,任何版权问题请联系原资源发布商,我们不处理任何版权纠纷,谢谢!如有争议请联系邮箱:BT9527#hotmail.com(#换成@)
3、如果您发现某页面或地址有错误,请联系站长邮箱BT9527#hotmail.com(#换成@),我们会尽快处理。您的热心是对BT9527电影天堂最大的支持。
4、本站建议去正规影院观看电影以支持电影行业发展。
最新回复 (0)

你可以在 登录 or 注册 后,对此帖发表评论!

返回
发新帖