勇士[简繁英字幕].Warrior.2011.UHD.BluRay.2160p.TrueHD.Atmos.7.1.x265.10bit.HDR-ALT 23.53GB

版主小s 5月前 255

✔资源类型:BD-4K   ✔电影年份:2011   ✔电影地区:欧美   ✔电影分类:剧情

◎标  题 勇士
◎译  名 勇者无敌(台) / 钢铁斗士(港) / 武士 / 拳击勇士
◎片  名 Warrior
◎年  代 2011
◎产  地 美国
◎类  别 剧情 / 家庭 / 运动
◎语  言 英语
◎上映日期 2011-09-09(美国)
◎IMDb评分 8.1/10 (452765人评价)
◎IMDb链接 https://www.imdb.com/title/tt1291584/
◎豆瓣评分 8.9/10 (146059人评价)
◎豆瓣链接 https://movie.douban.com/subject/3217169/
◎片  长 140分钟
◎导  演 加文·欧康诺 Gavin O'Connor
◎编  剧 加文·欧康诺 Gavin O'Connor
       安东尼·塔姆巴基斯 Anthony Tambakis
◎演  员 汤姆·哈迪 Tom Hardy
       乔尔·埃哲顿 Joel Edgerton
       尼克·诺特 Nick Nolte
       詹妮弗·莫里森 Jennifer Morrison
       弗兰克·格里罗 Frank Grillo
       凯文·杜恩 Kevin Dunn
       加文·欧康诺 Gavin O'Connor
       Nick Marcucci Nick Marcucci
       杰克·麦克劳克林 Jake McLaughlin
       费尔南多·钱 Fernando Chien

◎标  签 动作 / 美国 / 励志 / 亲情 / 汤姆·哈迪 / 剧情 / 家庭 / 拳击

◎简  介
    这是一个破碎的家庭,酗酒的教练父亲帕迪(尼克·诺特 Nick Nolte 饰)家暴妻子,次子汤米(汤姆·哈迪 Tom Hardy 饰)与不堪忍受的母亲远赴他乡;长子布兰登(乔尔·埃哲顿 Joel Edgerton 饰)为了爱情选择留下,并认为从此可以得到父亲的器重与栽培,然而最后父子还是分道扬镳。时隔多年后,汤米带着母亲痛苦死去的悲伤记忆,以及在伊战中的惨痛经历找到父亲,要求后者再度担任自己的教练,以参加MMA的重奖大赛;几乎与此同时,昔日的职业格斗选手、如今的中学物理教师布兰登为金钱所困扰,他不能忍受自己无法为妻女提供庇护,决定重返赛场。在MMA的赛场上,这对分离多年的兄弟将再度聚首,用血与汗的交融,化释彼此的心结……
  1. ##### MediaInfo ######
  2. General
  3. Unique ID                                : 255696355118317553218659789090475173956 (0xC05D53A290CA6825BE83BE631C3B6844)
  4. Complete name                            : Warrior.2011.UHD.BluRay.2160p.TrueHD.Atmos.7.1.x265.10bit.HDR-ALT.mkv
  5. Format                                   : Matroska
  6. Format version                           : Version 4
  7. File size                                : 23.5 GiB
  8. Duration                                 : 2 h 19 min
  9. Overall bit rate mode                    : Variable
  10. Overall bit rate                         : 24.1 Mb/s
  11. Encoded date                             : UTC 2022-06-23 11:50:49
  12. Writing application                      : mkvmerge v49.0.0 ('Sick Of Losing Soulmates') 64-bit
  13. Writing library                          : libebml v1.4.0 + libmatroska v1.6.1
  14. Video
  15. ID                                       : 1
  16. Format                                   : HEVC
  17. Format/Info                              : High Efficiency Video Coding
  18. Format profile                           : Main 10@L5.1@High
  19. HDR format                               : SMPTE ST 2086, HDR10 compatible
  20. Codec ID                                 : V_MPEGH/ISO/HEVC
  21. Duration                                 : 2 h 19 min
  22. Bit rate                                 : 18.5 Mb/s
  23. Width                                    : 3 840 pixels
  24. Height                                   : 1 600 pixels
  25. Display aspect ratio                     : 2.40:1
  26. Frame rate mode                          : Constant
  27. Frame rate                               : 23.976 (24000/1001/53354) FPS
  28. Color space                              : YUV
  29. Chroma subsampling                       : 4:2:0 (Type 2)
  30. Bit depth                                : 10 bits
  31. Bits/(Pixel*Frame)                       : 0.126
  32. Stream size                              : 18.1 GiB (77%)
  33. Title                                    : HEVC, x265Main10@L5.1@High, 24/1.001 fps @ 18530 kbps
  34. Writing library                          : x265 3.5+36-1f2c8da77:[Windows][GCC 11.2.0][64 bit] 10bit
  35. Encoding settings                        : cpuid=533541111039 / frame-threads=4 / numa-pools=20 / wpp / no-pmode / no-pme / no-psnr / no-ssim / log-level=2 / input-csp=1 / input-res=3840x1600 / interlace=0 / total-frames=201267 / level-idc=51 / high-tier=1 / uhd-bd=0 / ref=4 / no-allow-non-conformance / repeat-headers / annexb / no-aud / no-eob / no-eos / hrd / info / hash=0 / no-temporal-layers / no-open-gop / min-keyint=24 / keyint=240 / gop-lookahead=0 / bframes=8 / b-adapt=2 / b-pyramid / bframe-bias=0 / rc-lookahead=25 / lookahead-slices=0 / NTMzNTQ=uuDQuD2mJt9fsCf / scenecut=40 / no-hist-scenecut / radl=0 / no-splice / no-intra-refresh / ctu=64 / min-cu-size=8 / no-rect / no-amp / max-tu-size=32 / tu-inter-depth=3 / tu-intra-depth=3 / limit-tu=4 / rdoq-level=2 / dynamic-rd=0.00 / no-ssim-rd / signhide / no-tskip / nr-intra=0 / nr-inter=0 / no-constrained-intra / no-strong-intra-smoothing / max-merge=4 / limit-refs=1 / limit-modes / me=3 / subme=4 / merange=57 / temporal-mvp / no-frame-dup / no-hme / weightp / weightb / no-analyze-src-pics / deblock=-3:-3 / no-sao / no-sao-non-deblock / rd=6 / selective-sao=0 / no-early-skip / rskip / no-fast-intra / no-tskip-fast / no-cu-lossless / b-intra / no-splitrd-skip / rdpenalty=0 / psy-rd=2.00 / psy-rdoq=1.00 / no-rd-refine / no-lossless / cbqpoffs=-2 / crqpoffs=-2 / rc=crf / crf=22.0 / qcomp=0.65 / qpstep=4 / stats-write=0 / stats-read=0 / vbv-maxrate=160000 / vbv-bufsize=160000 / vbv-init=0.9 / min-vbv-fullness=50.0 / max-vbv-fullness=80.0 / crf-max=0.0 / crf-min=0.0 / ipratio=1.30 / pbratio=1.20 / aq-mode=3 / aq-strength=0.85 / cutree / zone-count=0 / no-strict-cbr / qg-size=32 / no-rc-grain / qpmax=69 / qpmin=0 / no-const-vbv / sar=1 / overscan=0 / videoformat=5 / range=0 / colorprim=9 / transfer=16 / colormatrix=9 / chromaloc=1 / chromaloc-top=2 / chromaloc-bottom=2 / display-window=0 / master-display=G(13250,34500)B(7500,3000)R(34000,16000)WP(15635,16450)L(10000000,0) / cll=1000,429 / min-luma=0 / max-luma=1023 / log2-max-poc-lsb=8 / vui-timing-info / vui-hrd-info / slices=1 / no-opt-qp-pps / no-opt-ref-list-length-pps / no-multi-pass-opt-rps / scenecut-bias=0.05 / hist-threshold=0.03 / no-opt-cu-delta-qp / no-aq-motion / hdr10 / hdr10-opt / no-dhdr10-opt / no-idr-recovery-sei / analysis-reuse-level=0 / analysis-save-reuse-level=0 / analysis-load-reuse-level=0 / scale-factor=0 / refine-intra=0 / refine-inter=0 / refine-mv=1 / refine-ctu-distortion=0 / no-limit-sao / ctu-info=0 / no-lowpass-dct / refine-analysis-type=0 / copy-pic=1 / max-ausize-factor=1.0 / no-dynamic-refine / no-single-sei / no-hevc-aq / no-svt / no-field / qp-adaptation-range=1.00 / scenecut-aware-qp=0conformance-window-offsets / right=0 / bottom=0 / NTMzNTQ= / decoder-max-rate=0 / no-vbv-live-multi-pass
  36. Language                                 : English
  37. Default                                  : Yes
  38. Forced                                   : No
  39. Color range                              : Limited
  40. Color primaries                          : BT.2020
  41. Transfer characteristics                 : PQ
  42. Matrix coefficients                      : BT.2020 non-constant
  43. Mastering display color primaries        : Display P3
  44. Mastering display luminance              : min: 0.0000 cd/m2, max: 1000 cd/m2
  45. Maximum Content Light Level              : 1000 cd/m2
  46. Maximum Frame-Average Light Level        : 429 cd/m2
  47. Audio #1
  48. ID                                       : 2
  49. Format                                   : MLP FBA 16-ch
  50. Format/Info                              : Meridian Lossless Packing FBA with 16-channel presentation
  51. Commercial name                          : Dolby TrueHD with Dolby Atmos
  52. Codec ID                                 : A_TRUEHD
  53. Duration                                 : 2 h 19 min
  54. Bit rate mode                            : Variable
  55. Bit rate                                 : 4 335 kb/s
  56. Maximum bit rate                         : 8 205 kb/s
  57. Channel(s)                               : 8 channels
  58. Channel layout                           : L R C LFE Ls Rs Lb Rb
  59. Sampling rate                            : 48.0 kHz
  60. Frame rate                               : 1 200.000 FPS (40 SPF)
  61. Compression mode                         : Lossless
  62. Stream size                              : 4.24 GiB (18%)
  63. Title                                    : English Dolby TrueHD 7.1 (Atmos) @ 4975 kbps
  64. Language                                 : English
  65. Default                                  : Yes
  66. Forced                                   : No
  67. Number of dynamic objects                : 15
  68. Bed channel count                        : 1 channel
  69. Bed channel configuration                : LFE
  70. Audio #2
  71. ID                                       : 3
  72. Format                                   : AC-3
  73. Format/Info                              : Audio Coding 3
  74. Commercial name                          : Dolby Digital
  75. Codec ID                                 : A_AC3
  76. Duration                                 : 2 h 19 min
  77. Bit rate mode                            : Constant
  78. Bit rate                                 : 640 kb/s
  79. Channel(s)                               : 6 channels
  80. Channel layout                           : L R C LFE Ls Rs
  81. Sampling rate                            : 48.0 kHz
  82. Frame rate                               : 31.250 FPS (1536 SPF)
  83. Compression mode                         : Lossy
  84. Stream size                              : 640 MiB (3%)
  85. Title                                    : English Dolby 5.1-EX 5.1 @ 640 kbps
  86. Language                                 : English
  87. Service kind                             : Complete Main
  88. Default                                  : No
  89. Forced                                   : No
  90. Audio #3
  91. ID                                       : 4
  92. Format                                   : AC-3
  93. Format/Info                              : Audio Coding 3
  94. Commercial name                          : Dolby Digital
  95. Codec ID                                 : A_AC3
  96. Duration                                 : 2 h 19 min
  97. Bit rate mode                            : Constant
  98. Bit rate                                 : 224 kb/s
  99. Channel(s)                               : 2 channels
  100. Channel layout                           : L R
  101. Sampling rate                            : 48.0 kHz
  102. Frame rate                               : 31.250 FPS (1536 SPF)
  103. Compression mode                         : Lossy
  104. Stream size                              : 224 MiB (1%)
  105. Title                                    : English Dolby Digital Audio 2.0 @ 192 kbps  Commentary
  106. Language                                 : English
  107. Service kind                             : Complete Main
  108. Default                                  : No
  109. Forced                                   : No
  110. Text #1
  111. ID                                       : 5
  112. Format                                   : PGS
  113. Codec ID                                 : S_HDMV/PGS
  114. Codec ID/Info                            : Picture based subtitle format used on BDs/HD-DVDs
  115. Duration                                 : 2 h 8 min
  116. Bit rate                                 : 46.9 kb/s
  117. Count of elements                        : 3724
  118. Stream size                              : 42.9 MiB (0%)
  119. Title                                    : Eng/SUP
  120. Language                                 : English
  121. Default                                  : No
  122. Forced                                   : No
  123. Text #2
  124. ID                                       : 6
  125. Format                                   : PGS
  126. Codec ID                                 : S_HDMV/PGS
  127. Codec ID/Info                            : Picture based subtitle format used on BDs/HD-DVDs
  128. Duration                                 : 2 h 12 min
  129. Bit rate                                 : 48.6 kb/s
  130. Count of elements                        : 3998
  131. Stream size                              : 46.1 MiB (0%)
  132. Title                                    : Eng/SUP  SDH
  133. Language                                 : English
  134. Default                                  : No
  135. Forced                                   : No
  136. Text #3
  137. ID                                       : 7
  138. Format                                   : PGS
  139. Codec ID                                 : S_HDMV/PGS
  140. Codec ID/Info                            : Picture based subtitle format used on BDs/HD-DVDs
  141. Duration                                 : 2 h 10 min
  142. Bit rate                                 : 35.4 kb/s
  143. Count of elements                        : 4010
  144. Stream size                              : 33.1 MiB (0%)
  145. Title                                    : Chs/SUP  简体
  146. Language                                 : Chinese
  147. Default                                  : Yes
  148. Forced                                   : No
  149. Text #4
  150. ID                                       : 8
  151. Format                                   : PGS
  152. Codec ID                                 : S_HDMV/PGS
  153. Codec ID/Info                            : Picture based subtitle format used on BDs/HD-DVDs
  154. Duration                                 : 2 h 10 min
  155. Bit rate                                 : 36.7 kb/s
  156. Count of elements                        : 4010
  157. Stream size                              : 34.3 MiB (0%)
  158. Title                                    : Cht/SUP  繁体
  159. Language                                 : Chinese
  160. Default                                  : No
  161. Forced                                   : No
  162. Text #5
  163. ID                                       : 9
  164. Format                                   : PGS
  165. Codec ID                                 : S_HDMV/PGS
  166. Codec ID/Info                            : Picture based subtitle format used on BDs/HD-DVDs
  167. Duration                                 : 2 h 10 min
  168. Bit rate                                 : 62.7 kb/s
  169. Count of elements                        : 4010
  170. Stream size                              : 58.5 MiB (0%)
  171. Title                                    : Chs/SUP  简英双语
  172. Language                                 : Chinese
  173. Default                                  : No
  174. Forced                                   : No
  175. Text #6
  176. ID                                       : 10
  177. Format                                   : PGS
  178. Codec ID                                 : S_HDMV/PGS
  179. Codec ID/Info                            : Picture based subtitle format used on BDs/HD-DVDs
  180. Duration                                 : 2 h 10 min
  181. Bit rate                                 : 63.9 kb/s
  182. Count of elements                        : 4010
  183. Stream size                              : 59.6 MiB (0%)
  184. Title                                    : Cht/SUP  繁英双语
  185. Language                                 : Chinese
  186. Default                                  : No
  187. Forced                                   : No
  188. Menu
  189. 00:00:00.000                             : en:绗?01 绔?
  190. 00:10:31.965                             : en:绗?02 绔?
  191. 00:10:32.048                             : en:绗?03 绔?
  192. 00:16:45.838                             : en:绗?04 绔?
  193. 00:16:45.922                             : en:绗?05 绔?
  194. 00:26:33.675                             : en:绗?06 绔?
  195. 00:26:33.759                             : en:绗?07 绔?
  196. 00:39:08.096                             : en:绗?08 绔?
  197. 00:39:08.179                             : en:绗?09 绔?
  198. 00:45:48.746                             : en:绗?10 绔?
  199. 00:45:48.829                             : en:绗?11 绔?
  200. 00:51:28.043                             : en:绗?12 绔?
  201. 00:51:28.127                             : en:绗?13 绔?
  202. 00:58:26.920                             : en:绗?14 绔?
  203. 00:58:27.003                             : en:绗?15 绔?
  204. 01:06:01.583                             : en:绗?16 绔?
  205. 01:06:01.666                             : en:绗?17 绔?
  206. 01:14:26.379                             : en:绗?18 绔?
  207. 01:14:26.462                             : en:绗?19 绔?
  208. 01:22:32.030                             : en:绗?20 绔?
  209. 01:22:32.114                             : en:绗?21 绔?
  210. 01:30:34.763                             : en:绗?22 绔?
  211. 01:30:34.846                             : en:绗?23 绔?
  212. 01:40:45.164                             : en:绗?24 绔?
  213. 01:40:45.248                             : en:绗?25 绔?
  214. 01:52:55.102                             : en:绗?26 绔?
  215. 01:52:55.185                             : en:绗?27 绔?
  216. 02:00:20.213                             : en:绗?28 绔?
  217. 02:00:20.296                             : en:绗?29 绔?
  218. 02:06:49.519                             : en:绗?30 绔?
  219. 02:06:49.602                             : en:绗?31 绔?





此处一般会放置磁力链或种子下载链接,不过此链接需要注册会员才能看到,点击“立即注册”
磁力链下载【下载链接仅对注册会员开放,登陆后可见】
BT9527电影天堂 1、BT9527电影天堂提供的BT文件均来源于互联网抓取,只供网友学习交流、技术提升使用。
2、我们遵守BitTorrent点对点协议原则,任何版权问题请联系原资源发布商,我们不处理任何版权纠纷,谢谢!如有争议请联系邮箱:BT9527#hotmail.com(#换成@)
3、如果您发现某页面或地址有错误,请联系站长邮箱BT9527#hotmail.com(#换成@),我们会尽快处理。您的热心是对BT9527电影天堂最大的支持。
4、本站建议去正规影院观看电影以支持电影行业发展。
最新回复 (0)

你可以在 登录 or 注册 后,对此帖发表评论!

返回
发新帖