火药奶昔[简繁英字幕].Gunpowder.Milkshake.2021.UHD.BluRay.2160p.TrueHD.Atmos.7.1.x265.10bit.HDR-ALT 16.75GB

版主小s 5月前 405

✔资源类型:BD-4K   ✔电影年份:2021   ✔电影地区:其他   ✔电影分类:动作

◎标  题 火药奶昔
◎译  名 血客联盟(台) / Bloody Milkshake
◎片  名 Gunpowder Milkshake
◎年  代 2021
◎产  地 法国 / 美国 / 德国
◎类  别 动作 / 惊悚 / 冒险
◎语  言 英语
◎上映日期 2021-07-14(美国)
◎IMDb评分 6.1/10 (34748人评价)
◎IMDb链接 https://www.imdb.com/title/tt8368408/
◎豆瓣评分 5.7/10 (5712人评价)
◎豆瓣链接 https://movie.douban.com/subject/30425275/
◎片  长 114分钟
◎导  演 纳沃特·帕普莎多 Navot Papushado
◎编  剧 纳沃特·帕普莎多 Navot Papushado
◎演  员 凯伦·吉兰 Karen Gillan
       琳娜·海蒂 Lena Headey
       卡拉·古奇诺 Carla Gugino
       杨紫琼 Michelle Yeoh
       安吉拉·贝塞特 Angela Bassett
       保罗·吉亚玛提 Paul Giamatti
       拉尔夫·伊内森 Ralph Ineson
       弗蕾娅·艾伦 Freya Allan
       克洛伊·科尔曼 Chloe Coleman
       罗伯特‧马瑟 Robert Maaser
       亚当·那加提斯 Adam Nagaitis
       塞缪尔·安德森 Samuel Anderson
       乔梅杨 Mai Duong Kieu
       杰克·班戴拉 Jack Bandeira
       约书亚·格罗斯 Joshua Grothe
       艾德·伯奇 Ed Birch
       大卫·齐梅尔席德 David Zimmerschied
       安妮塔·欧拉藤吉 Anita Olatunji
       乔安娜·波宾 Joanna Bobin
       迈克尔·塞瑞岑 Michael Seresin

◎标  签 动作 / 美国 / 犯罪 / 2021 / 黑色幽默 / 杨紫琼 / 凯伦·吉兰 / 美国电影

◎简  介
  萨姆(凯伦·吉兰饰)的母亲斯卡利特(琳娜·海蒂饰)是一名精英刺客,当萨姆被迫与母亲分开时,她只有 12 岁。萨姆由 The Firm 抚养长大,这是她母亲为之工作的无情犯罪集团。现在,15 年过去了,萨姆跟随母亲的脚步,成长为一名作风凌厉的女杀手。她用自己的“才能”来收拾 The Firm 最危险的烂摊子,既能干又忠诚。但是,当高风险工作出问题时,萨姆必须选择继续效忠 The Firm,还是保护无辜的 8 岁女孩埃米莉(克洛伊·科尔曼饰)的生命。萨姆成为了被追杀的对象,现在她只有一次生存的机会:与她的母亲和其他女杀手“图书管理员”(杨紫琼、安吉拉·贝塞特和卡拉·古奇诺饰)团聚。这三代女性现在必须学会彼此信任,勇敢地对抗 The Firm 及爪牙大军,奋起反抗那些可以夺走她们一切的人。
  1. ##### MediaInfo ######
  2. General
  3. Unique ID                                : 177308979555179975812798941687337594439 (0x856477A1D9F6086986AA66CA6D922E47)
  4. Complete name                            : Gunpowder.Milkshake.2021.UHD.BluRay.2160p.TrueHD.Atmos.7.1.x265.10bit.HDR-ALT.mkv
  5. Format                                   : Matroska
  6. Format version                           : Version 4
  7. File size                                : 16.8 GiB
  8. Duration                                 : 1 h 54 min
  9. Overall bit rate mode                    : Variable
  10. Overall bit rate                         : 20.9 Mb/s
  11. Encoded date                             : UTC 2022-06-23 04:47:29
  12. Writing application                      : mkvmerge v49.0.0 ('Sick Of Losing Soulmates') 64-bit
  13. Writing library                          : libebml v1.4.0 + libmatroska v1.6.1
  14. Video
  15. ID                                       : 1
  16. Format                                   : HEVC
  17. Format/Info                              : High Efficiency Video Coding
  18. Format profile                           : Main 10@L5.1@High
  19. HDR format                               : SMPTE ST 2086, HDR10 compatible
  20. Codec ID                                 : V_MPEGH/ISO/HEVC
  21. Duration                                 : 1 h 54 min
  22. Bit rate                                 : 16.7 Mb/s
  23. Width                                    : 3 840 pixels
  24. Height                                   : 1 606 pixels
  25. Display aspect ratio                     : 2.40:1
  26. Frame rate mode                          : Constant
  27. Frame rate                               : 24.000 FPS
  28. Color space                              : YUV
  29. Chroma subsampling                       : 4:2:0 (Type 2)
  30. Bit depth                                : 10 bits
  31. Bits/(Pixel*Frame)                       : 0.113
  32. Stream size                              : 13.4 GiB (80%)
  33. Title                                    : HEVC, x265Main10@L5.1@High, 24/1.001 fps @ 16740 kbps
  34. Writing library                          : x265 3.5+36-1f2c8da77:[Windows][GCC 11.2.0][64 bit] 10bit
  35. Encoding settings                        : cpuid=533541111039 / frame-threads=4 / numa-pools=20 / wpp / no-pmode / no-pme / no-psnr / no-ssim / log-level=2 / input-csp=1 / input-res=3840x1606 / interlace=0 / total-frames=165045 / level-idc=51 / high-tier=1 / uhd-bd=0 / ref=4 / no-allow-non-conformance / repeat-headers / annexb / no-aud / no-eob / no-eos / hrd / info / hash=0 / no-temporal-layers / no-open-gop / min-keyint=24 / keyint=240 / gop-lookahead=0 / bframes=8 / b-adapt=2 / b-pyramid / bframe-bias=0 / rc-lookahead=25 / lookahead-slices=0 / NTMzNTQ=uuDQuD2mJt9fsCf / scenecut=40 / no-hist-scenecut / radl=0 / no-splice / no-intra-refresh / ctu=64 / min-cu-size=8 / no-rect / no-amp / max-tu-size=32 / tu-inter-depth=3 / tu-intra-depth=3 / limit-tu=4 / rdoq-level=2 / dynamic-rd=0.00 / no-ssim-rd / signhide / no-tskip / nr-intra=0 / nr-inter=0 / no-constrained-intra / no-strong-intra-smoothing / max-merge=4 / limit-refs=1 / limit-modes / me=3 / subme=4 / merange=57 / temporal-mvp / no-frame-dup / no-hme / weightp / weightb / no-analyze-src-pics / deblock=-3:-3 / no-sao / no-sao-non-deblock / rd=6 / selective-sao=0 / no-early-skip / rskip / no-fast-intra / no-tskip-fast / no-cu-lossless / b-intra / no-splitrd-skip / rdpenalty=0 / psy-rd=2.00 / psy-rdoq=1.00 / no-rd-refine / no-lossless / cbqpoffs=-2 / crqpoffs=-2 / rc=crf / crf=18.5 / qcomp=0.65 / qpstep=4 / stats-write=0 / stats-read=0 / vbv-maxrate=160000 / vbv-bufsize=160000 / vbv-init=0.9 / min-vbv-fullness=50.0 / max-vbv-fullness=80.0 / crf-max=0.0 / crf-min=0.0 / ipratio=1.30 / pbratio=1.20 / aq-mode=3 / aq-strength=0.85 / cutree / zone-count=0 / no-strict-cbr / qg-size=32 / no-rc-grain / qpmax=69 / qpmin=0 / no-const-vbv / sar=1 / overscan=0 / videoformat=5 / range=0 / colorprim=9 / transfer=16 / colormatrix=9 / chromaloc=1 / chromaloc-top=2 / chromaloc-bottom=2 / display-window=0 / master-display=G(13250,34500)B(7500,3000)R(34000,16000)WP(15635,16450)L(10000000,1) / cll=1044,386 / min-luma=0 / max-luma=1023 / log2-max-poc-lsb=8 / vui-timing-info / vui-hrd-info / slices=1 / no-opt-qp-pps / no-opt-ref-list-length-pps / no-multi-pass-opt-rps / scenecut-bias=0.05 / hist-threshold=0.03 / no-opt-cu-delta-qp / no-aq-motion / hdr10 / hdr10-opt / no-dhdr10-opt / no-idr-recovery-sei / analysis-reuse-level=0 / analysis-save-reuse-level=0 / analysis-load-reuse-level=0 / scale-factor=0 / refine-intra=0 / refine-inter=0 / refine-mv=1 / refine-ctu-distortion=0 / no-limit-sao / ctu-info=0 / no-lowpass-dct / refine-analysis-type=0 / copy-pic=1 / max-ausize-factor=1.0 / no-dynamic-refine / no-single-sei / no-hevc-aq / no-svt / no-field / qp-adaptation-range=1.00 / scenecut-aware-qp=0conformance-window-offsets / right=0 / bottom=0 / NTMzNTQ= / decoder-max-rate=0 / no-vbv-live-multi-pass
  36. Language                                 : English
  37. Default                                  : Yes
  38. Forced                                   : No
  39. Color range                              : Limited
  40. Color primaries                          : BT.2020
  41. Transfer characteristics                 : PQ
  42. Matrix coefficients                      : BT.2020 non-constant
  43. Mastering display color primaries        : Display P3
  44. Mastering display luminance              : min: 0.0001 cd/m2, max: 1000 cd/m2
  45. Maximum Content Light Level              : 1044 cd/m2
  46. Maximum Frame-Average Light Level        : 386 cd/m2
  47. Audio #1
  48. ID                                       : 2
  49. Format                                   : MLP FBA 16-ch
  50. Format/Info                              : Meridian Lossless Packing FBA with 16-channel presentation
  51. Commercial name                          : Dolby TrueHD with Dolby Atmos
  52. Codec ID                                 : A_TRUEHD
  53. Duration                                 : 1 h 54 min
  54. Bit rate mode                            : Variable
  55. Bit rate                                 : 3 334 kb/s
  56. Maximum bit rate                         : 5 103 kb/s
  57. Channel(s)                               : 8 channels
  58. Channel layout                           : L R C LFE Ls Rs Lb Rb
  59. Sampling rate                            : 48.0 kHz
  60. Frame rate                               : 1 200.000 FPS (40 SPF)
  61. Compression mode                         : Lossless
  62. Stream size                              : 2.67 GiB (16%)
  63. Title                                    : English Dolby TrueHD 7.1 (Atmos) @ 3974 kbps
  64. Language                                 : English
  65. Default                                  : Yes
  66. Forced                                   : No
  67. Number of dynamic objects                : 13
  68. Bed channel count                        : 1 channel
  69. Bed channel configuration                : LFE
  70. Audio #2
  71. ID                                       : 3
  72. Format                                   : AC-3
  73. Format/Info                              : Audio Coding 3
  74. Commercial name                          : Dolby Digital
  75. Codec ID                                 : A_AC3
  76. Duration                                 : 1 h 54 min
  77. Bit rate mode                            : Constant
  78. Bit rate                                 : 640 kb/s
  79. Channel(s)                               : 6 channels
  80. Channel layout                           : L R C LFE Ls Rs
  81. Sampling rate                            : 48.0 kHz
  82. Frame rate                               : 31.250 FPS (1536 SPF)
  83. Compression mode                         : Lossy
  84. Stream size                              : 525 MiB (3%)
  85. Title                                    : English Dolby 5.1-EX 5.1 @ 640 kbps
  86. Language                                 : English
  87. Service kind                             : Complete Main
  88. Default                                  : No
  89. Forced                                   : No
  90. Text #1
  91. ID                                       : 4
  92. Format                                   : PGS
  93. Codec ID                                 : S_HDMV/PGS
  94. Codec ID/Info                            : Picture based subtitle format used on BDs/HD-DVDs
  95. Duration                                 : 1 h 47 min
  96. Bit rate                                 : 23.0 kb/s
  97. Count of elements                        : 1537
  98. Stream size                              : 17.7 MiB (0%)
  99. Title                                    : Eng/SUP
  100. Language                                 : English
  101. Default                                  : No
  102. Forced                                   : No
  103. Text #2
  104. ID                                       : 5
  105. Format                                   : PGS
  106. Codec ID                                 : S_HDMV/PGS
  107. Codec ID/Info                            : Picture based subtitle format used on BDs/HD-DVDs
  108. Duration                                 : 1 h 47 min
  109. Bit rate                                 : 23.8 kb/s
  110. Count of elements                        : 1684
  111. Stream size                              : 18.3 MiB (0%)
  112. Title                                    : Chs/SUP  简体
  113. Language                                 : Chinese
  114. Default                                  : Yes
  115. Forced                                   : No
  116. Text #3
  117. ID                                       : 6
  118. Format                                   : PGS
  119. Codec ID                                 : S_HDMV/PGS
  120. Codec ID/Info                            : Picture based subtitle format used on BDs/HD-DVDs
  121. Duration                                 : 1 h 47 min
  122. Bit rate                                 : 24.7 kb/s
  123. Count of elements                        : 1684
  124. Stream size                              : 19.0 MiB (0%)
  125. Title                                    : Cht/SUP  繁体
  126. Language                                 : Chinese
  127. Default                                  : No
  128. Forced                                   : No
  129. Text #4
  130. ID                                       : 7
  131. Format                                   : PGS
  132. Codec ID                                 : S_HDMV/PGS
  133. Codec ID/Info                            : Picture based subtitle format used on BDs/HD-DVDs
  134. Duration                                 : 1 h 49 min
  135. Bit rate                                 : 39.7 kb/s
  136. Count of elements                        : 2165
  137. Stream size                              : 31.1 MiB (0%)
  138. Title                                    : Chs/SUP  简英双语
  139. Language                                 : Chinese
  140. Default                                  : No
  141. Forced                                   : No
  142. Text #5
  143. ID                                       : 8
  144. Format                                   : PGS
  145. Codec ID                                 : S_HDMV/PGS
  146. Codec ID/Info                            : Picture based subtitle format used on BDs/HD-DVDs
  147. Duration                                 : 1 h 49 min
  148. Bit rate                                 : 40.2 kb/s
  149. Count of elements                        : 2165
  150. Stream size                              : 31.4 MiB (0%)
  151. Title                                    : Cht/SUP  繁英双语
  152. Language                                 : Chinese
  153. Default                                  : No
  154. Forced                                   : No
  155. Menu
  156. 00:00:00.000                             : en:第 01 章
  157. 00:09:00.375                             : en:第 02 章
  158. 00:19:00.375                             : en:第 03 章
  159. 00:28:08.540                             : en:第 04 章
  160. 00:38:39.000                             : en:第 05 章
  161. 00:49:54.708                             : en:第 06 章
  162. 00:58:43.541                             : en:第 07 章
  163. 01:07:56.166                             : en:第 08 章
  164. 01:19:35.625                             : en:第 09 章
  165. 01:30:27.207                             : en:第 10 章
  166. 01:40:39.416                             : en:第 11 章
  167. 01:49:02.000                             : en:第 12 章





此处一般会放置磁力链或种子下载链接,不过此链接需要注册会员才能看到,点击“立即注册”
磁力链下载【下载链接仅对注册会员开放,登陆后可见】
BT9527电影天堂 1、BT9527电影天堂提供的BT文件均来源于互联网抓取,只供网友学习交流、技术提升使用。
2、我们遵守BitTorrent点对点协议原则,任何版权问题请联系原资源发布商,我们不处理任何版权纠纷,谢谢!如有争议请联系邮箱:BT9527#hotmail.com(#换成@)
3、如果您发现某页面或地址有错误,请联系站长邮箱BT9527#hotmail.com(#换成@),我们会尽快处理。您的热心是对BT9527电影天堂最大的支持。
4、本站建议去正规影院观看电影以支持电影行业发展。
最新回复 (0)

你可以在 登录 or 注册 后,对此帖发表评论!

返回
发新帖