该死的歌德[共2部合集][简繁英字幕].Suck.Me.Shakespeer.1-2.2013-2015.BluRay.1080p.DTS-HD.HR.5.1.x265.10bit-ALT 20.61GB

版主小s 5月前 242

✔资源类型:暂未分类   ✔电影年份:合 集   ✔电影地区:其他   ✔电影分类:合集

◎标  题 该死的歌德
◎译  名 不良鲜师(港 / 台) / 要命教书匠 / F*ck You /  Goethe / Suck Me Shakespeer
◎片  名 Fack ju Göhte
◎年  代 2013
◎产  地 德国
◎类  别 喜剧 / 爱情
◎语  言 德语
◎上映日期 2013-11-07(德国)
◎IMDb评分 6.9/10 (28031人评价)
◎IMDb链接 https://www.imdb.com/title/tt2987732/
◎豆瓣评分 7.6/10 (7735人评价)
◎豆瓣链接 https://movie.douban.com/subject/24815502/
◎片  长 119分钟
◎导  演 博拉·达格特肯 Bora Dagtekin
◎编  剧 博拉·达格特肯 Bora Dagtekin
◎演  员 埃利亚斯·穆巴里克 Elyas M'Barek
       卡洛琳·赫弗斯 Karoline Herfurth
       卡蒂娅·里曼 Katja Riemann
       雅娜·帕拉斯克 Jana Pallaske
       艾瓦拉·胡弗茨 Alwara Höfels
       杰拉·哈斯 Jella Haase
       马克斯·冯·德·格罗本 Max von der Groeben
       莱娜·克棱克 Lena Klenke
       吉泽姆·埃姆雷 Gizem Emre
       阿拉姆·阿拉米 Aram Arami
       鲁娜·格雷纳 Runa Greiner
       瓦伦蒂娜·帕德 Valentina Pahde
       罗宾·赖歇尔特 Robin Reichelt
       乔纳斯·霍登里德尔 Jonas Holdenrieder
       厄达尔·伊迪兹 Erdal Yildiz
       尤斯奇·格拉斯 Uschi Glas
       贝恩德·斯特格曼 Bernd Stegemann
       法里德·邦 Farid Bang

◎标  签 喜剧 / 德国 / 校园 / 搞笑 / 青春 / 成长 / 爱情 / 2013

◎简  介
    痞子泽基(埃利亚斯·穆巴里克饰)刚刚出狱,找到了藏有以前抢来的赃款的地方,谁知那里居然建了一所歌德学校。于是他装成代课老师混进学校,找寻藏匿的地点……



  1. 合集文件列表:

  2. 1.Suck.Me.Shakespeer.2.2015.BluRay.1080p.DTS-HD.HR.5.1.x265.10bit-ALT.mkv 9.39GB

  3. 2.Suck.Me.Shakespeer.2013.BluRay.1080p.DTS-HD.HR.5.1.x265.10bit-ALT.mkv 11.22GB





  1. ##### MediaInfo ######
  2. General
  3. Unique ID                                : 65034318482901561015641880726022362305 (0x30ED277594E733E51292A4A6373794C1)
  4. Complete name                            : Suck.Me.Shakespeer.2.2015.BluRay.1080p.DTS-HD.HR.5.1.x265.10bit-ALT.mkv
  5. Format                                   : Matroska
  6. Format version                           : Version 4
  7. File size                                : 9.39 GiB
  8. Duration                                 : 1 h 55 min
  9. Overall bit rate                         : 11.7 Mb/s
  10. Encoded date                             : UTC 2022-06-22 12:32:12
  11. Writing application                      : mkvmerge v49.0.0 ('Sick Of Losing Soulmates') 64-bit
  12. Writing library                          : libebml v1.4.0 + libmatroska v1.6.1
  13. Video
  14. ID                                       : 1
  15. Format                                   : HEVC
  16. Format/Info                              : High Efficiency Video Coding
  17. Format profile                           : Main 10@L5.1@High
  18. Codec ID                                 : V_MPEGH/ISO/HEVC
  19. Duration                                 : 1 h 55 min
  20. Bit rate                                 : 9 514 kb/s
  21. Width                                    : 1 920 pixels
  22. Height                                   : 802 pixels
  23. Display aspect ratio                     : 2.40:1
  24. Frame rate mode                          : Constant
  25. Frame rate                               : 24.000 FPS
  26. Color space                              : YUV
  27. Chroma subsampling                       : 4:2:0
  28. Bit depth                                : 10 bits
  29. Bits/(Pixel*Frame)                       : 0.257
  30. Stream size                              : 7.67 GiB (82%)
  31. Title                                    : HEVC, x265Main10@L5.1@High, 24 fps @ 9513 kbps
  32. Writing library                          : x265 3.5+36-1f2c8da77:[Windows][GCC 11.2.0][64 bit] 10bit
  33. Encoding settings                        : cpuid=533541111039 / frame-threads=4 / numa-pools=16 / wpp / no-pmode / no-pme / no-psnr / no-ssim / log-level=2 / input-csp=1 / input-res=1920x802 / interlace=0 / total-frames=166200 / level-idc=51 / high-tier=1 / uhd-bd=0 / ref=5 / no-allow-non-conformance / no-repeat-headers / annexb / no-aud / no-eob / no-eos / no-hrd / info / hash=0 / no-temporal-layers / open-gop / min-keyint=24 / keyint=240 / gop-lookahead=0 / bframes=6 / b-adapt=2 / b-pyramid / bframe-bias=0 / rc-lookahead=40 / lookahead-slices=0 / NTMzNTQ=uuDQuD2mJt9fsCf / scenecut=40 / no-hist-scenecut / radl=0 / no-splice / no-intra-refresh / ctu=32 / min-cu-size=8 / no-rect / no-amp / max-tu-size=32 / tu-inter-depth=3 / tu-intra-depth=3 / limit-tu=4 / rdoq-level=2 / dynamic-rd=0.00 / no-ssim-rd / signhide / no-tskip / nr-intra=0 / nr-inter=0 / no-constrained-intra / no-strong-intra-smoothing / max-merge=4 / limit-refs=1 / limit-modes / me=3 / subme=4 / merange=25 / temporal-mvp / no-frame-dup / no-hme / weightp / weightb / no-analyze-src-pics / deblock=-3:-3 / no-sao / no-sao-non-deblock / rd=6 / selective-sao=0 / no-early-skip / rskip / no-fast-intra / no-tskip-fast / no-cu-lossless / b-intra / no-splitrd-skip / rdpenalty=0 / psy-rd=2.00 / psy-rdoq=1.00 / no-rd-refine / no-lossless / cbqpoffs=-2 / crqpoffs=-2 / rc=crf / crf=17.0 / qcomp=0.65 / qpstep=4 / stats-write=0 / stats-read=0 / vbv-maxrate=80000 / vbv-bufsize=80000 / vbv-init=0.9 / min-vbv-fullness=50.0 / max-vbv-fullness=80.0 / crf-max=0.0 / crf-min=0.0 / ipratio=1.40 / pbratio=1.30 / aq-mode=2 / aq-strength=0.85 / cutree / zone-count=0 / no-strict-cbr / qg-size=32 / no-rc-grain / qpmax=69 / qpmin=0 / no-const-vbv / sar=1 / overscan=0 / videoformat=5 / range=0 / colorprim=1 / transfer=1 / colormatrix=1 / chromaloc=0 / display-window=0 / cll=0,0 / min-luma=0 / max-luma=1023 / log2-max-poc-lsb=8 / vui-timing-info / vui-hrd-info / slices=1 / no-opt-qp-pps / no-opt-ref-list-length-pps / no-multi-pass-opt-rps / scenecut-bias=0.05 / hist-threshold=0.03 / no-opt-cu-delta-qp / no-aq-motion / no-hdr10 / no-hdr10-opt / no-dhdr10-opt / no-idr-recovery-sei / analysis-reuse-level=0 / analysis-save-reuse-level=0 / analysis-load-reuse-level=0 / scale-factor=0 / refine-intra=0 / refine-inter=0 / refine-mv=1 / refine-ctu-distortion=0 / no-limit-sao / ctu-info=0 / no-lowpass-dct / refine-analysis-type=0 / copy-pic=1 / max-ausize-factor=1.0 / no-dynamic-refine / no-single-sei / no-hevc-aq / no-svt / no-field / qp-adaptation-range=1.00 / scenecut-aware-qp=0conformance-window-offsets / right=0 / bottom=0 / NTMzNTQ= / decoder-max-rate=0 / no-vbv-live-multi-pass
  34. Language                                 : English
  35. Default                                  : Yes
  36. Forced                                   : No
  37. Color range                              : Limited
  38. Color primaries                          : BT.709
  39. Transfer characteristics                 : BT.709
  40. Matrix coefficients                      : BT.709
  41. Audio
  42. ID                                       : 2
  43. Format                                   : DTS XBR
  44. Format/Info                              : Digital Theater Systems
  45. Commercial name                          : DTS-HD High Resolution Audio
  46. Codec ID                                 : A_DTS
  47. Duration                                 : 1 h 55 min
  48. Bit rate mode                            : Constant
  49. Bit rate                                 : 2 046 kb/s
  50. Channel(s)                               : 6 channels
  51. Channel layout                           : C L R Ls Rs LFE
  52. Sampling rate                            : 48.0 kHz
  53. Frame rate                               : 93.750 FPS (512 SPF)
  54. Bit depth                                : 24 bits
  55. Compression mode                         : Lossy
  56. Stream size                              : 1.65 GiB (18%)
  57. Title                                    : German DTS-HD Hi-Res 5.1 @ 2046 kbps
  58. Language                                 : German
  59. Default                                  : Yes
  60. Forced                                   : No
  61. Text #1
  62. ID                                       : 3
  63. Format                                   : PGS
  64. Codec ID                                 : S_HDMV/PGS
  65. Codec ID/Info                            : Picture based subtitle format used on BDs/HD-DVDs
  66. Duration                                 : 1 h 54 min
  67. Bit rate                                 : 36.7 kb/s
  68. Count of elements                        : 3210
  69. Stream size                              : 30.1 MiB (0%)
  70. Title                                    : Eng/SUP
  71. Language                                 : English
  72. Default                                  : No
  73. Forced                                   : No
  74. Text #2
  75. ID                                       : 4
  76. Format                                   : PGS
  77. Codec ID                                 : S_HDMV/PGS
  78. Codec ID/Info                            : Picture based subtitle format used on BDs/HD-DVDs
  79. Duration                                 : 1 h 54 min
  80. Bit rate                                 : 26.6 kb/s
  81. Count of elements                        : 3214
  82. Stream size                              : 21.9 MiB (0%)
  83. Title                                    : Chs/SUP  简体
  84. Language                                 : Chinese
  85. Default                                  : Yes
  86. Forced                                   : No
  87. Text #3
  88. ID                                       : 5
  89. Format                                   : PGS
  90. Codec ID                                 : S_HDMV/PGS
  91. Codec ID/Info                            : Picture based subtitle format used on BDs/HD-DVDs
  92. Duration                                 : 1 h 54 min
  93. Bit rate                                 : 27.4 kb/s
  94. Count of elements                        : 3214
  95. Stream size                              : 22.5 MiB (0%)
  96. Title                                    : Cht/SUP  繁体
  97. Language                                 : Chinese
  98. Default                                  : No
  99. Forced                                   : No
  100. Menu
  101. 00:00:00.000                             : en:第 01 章
  102. 00:06:46.375                             : en:第 02 章
  103. 00:13:50.667                             : en:第 03 章
  104. 00:18:46.375                             : en:第 04 章
  105. 00:26:16.625                             : en:第 05 章
  106. 00:32:44.583                             : en:第 06 章
  107. 00:37:24.042                             : en:第 07 章
  108. 00:42:59.292                             : en:第 08 章
  109. 00:51:12.250                             : en:第 09 章
  110. 00:57:03.458                             : en:第 10 章
  111. 01:05:25.250                             : en:第 11 章
  112. 01:11:51.125                             : en:第 12 章
  113. 01:17:49.958                             : en:第 13 章
  114. 01:25:56.208                             : en:第 14 章
  115. 01:34:00.208                             : en:第 15 章
  116. 01:39:58.458                             : en:第 16 章
  117. 01:47:26.458                             : en:第 17 章





此处一般会放置磁力链或种子下载链接,不过此链接需要注册会员才能看到,点击“立即注册”
磁力链下载【下载链接仅对注册会员开放,登陆后可见】
BT9527电影天堂 1、BT9527电影天堂提供的BT文件均来源于互联网抓取,只供网友学习交流、技术提升使用。
2、我们遵守BitTorrent点对点协议原则,任何版权问题请联系原资源发布商,我们不处理任何版权纠纷,谢谢!如有争议请联系邮箱:BT9527#hotmail.com(#换成@)
3、如果您发现某页面或地址有错误,请联系站长邮箱BT9527#hotmail.com(#换成@),我们会尽快处理。您的热心是对BT9527电影天堂最大的支持。
4、本站建议去正规影院观看电影以支持电影行业发展。
最新回复 (0)

你可以在 登录 or 注册 后,对此帖发表评论!

返回
发新帖