罗曼蒂克消亡史[国语音轨/简繁字幕].The.Wasted.Times.2016.BluRay.1080p.DTS-HD.MA.5.1.x265.10bit-ALT 7.83GB

版主小s 6月前 497

✔资源类型:暂未分类   ✔电影年份:2016   ✔电影地区:大陆   ✔电影分类:剧情

◎标  题 罗曼蒂克消亡史
◎译  名 旧社会 / 浮生如梦 / The Wasted Times
◎年  代 2016
◎产  地 中国大陆 / 中国香港
◎类  别 剧情
◎语  言 汉语普通话 / 上海话 / 日语 / 英语
◎上映日期 2016-12-16(中国大陆)
◎IMDb评分 6.9/10 (1519人评价)
◎IMDb链接 https://www.imdb.com/title/tt4623812/
◎豆瓣评分 7.7/10 (350508人评价)
◎豆瓣链接 https://movie.douban.com/subject/24751763/
◎片  长 125分钟
◎导  演 程耳 Er Cheng
◎编  剧 程耳 Er Cheng
◎演  员 葛优 You Ge
       章子怡 Ziyi Zhang
       浅野忠信 Tadanobu Asano
       杜淳 Chun Du
       钟欣潼 Gillian Chung
       倪大红 Dahong Ni
       赵宝刚 Baogang Zhao
       袁泉 Quan Yuan
       闫妮 Ni Yan
       韩庚 Geng Han
       霍思燕 Siyan Huo
       杜江 Jiang Du
       王传君 Chuanjun Wang
       钟汉良 Wallace Chung
       马晓伟 Xiaowei Ma
       吕行 Xing Lü
       乔笑笑 Xiaoxiao Qiao
       刘天阳 Tianyang Liu
       赵海涛 Haitao Zhao
       叶禾 He Ye
       周敬峰 Jingfeng Zhou
       杨露璐 Lulu Yang
       松峰莉璃 Lilie Matsumine
       松浦敬之 Noriyuki Matsuura
       平田康之 Yasuyuki Hirata
       张晓龙 Xiaolong Zhang
       郭晓小 Xiaoxiao Guo
       小黑 Xiao He
       李冰 Bing Li
       徐忱 Chen Xu
       张志明
       张启煜 Qiyu Zhang
       张歌 Ge Zhang
       张琛 Chen Zhang
       王唯 Wei Wang
       李思源 Szu-Yuan Lee
       姜勇军 Yongjun Jiang
       周玲 Ling Zhou
       阿十·戈里 Ash Gordey
       利雅博 Albert Lee
       杨庭恺 Bernard Yang
       王中磊 Zhonglei Wang
       梅林茂 Shigeru Umebayashi
       郭思达 Sida Guo
       杜杰 Jie Du
       程耳 Er Cheng
       崔陆萌 Lumeng Cui
       李耀辉 Yaohui Li
       韩忠 Zhong Han
       刘若寒 Ruohan Liu
       李洪潇 Hardway Li
       左懿 Amelia Yi Zuo
       刘禹霆 Yuting Liu
       祝岩峰 Yan-feng Zhu

◎标  签 文艺 / 上海 / 民国 / 剧情 / 黑帮 / 中国大陆 / 历史 / 2016

◎简  介
  一出上世纪30年代旧上海的群像戏——叱咤风云的帮派大佬,不甘寂寞的交际花,说着地道上海话的日本妹夫,只收交通费的杀手,被冷落却忠诚的姨太太,外表光鲜的电影皇后,深宅大院里深不可测的管家,偶尔偷腥的电影皇帝,荷尔蒙满溢大脑的帮派小弟,一心想要破处的处男,善良的妓女,随波逐流的明星丈夫,投靠日本人的帮派二哥,日理万机却抽空恋爱的戴先生。                                    
                                战争之下,繁华落尽。帮派大佬逃亡香港,交际花不知所踪,日本妹夫死在上海,电影皇后被丈夫抛弃,处男遇上妓女,姨太太杀死二哥。战争惨烈,战争终于结束。
  1. ##### MediaInfo ######
  2. General
  3. Unique ID                                : 53319108459674723540776178233987426853 (0x281CE302A4270EC68B96E8357E05EA25)
  4. Complete name                            : The.Wasted.Times.2016.BluRay.1080p.DTS-HD.MA.5.1.x265.10bit-ALT.mkv
  5. Format                                   : Matroska
  6. Format version                           : Version 4
  7. File size                                : 7.83 GiB
  8. Duration                                 : 2 h 2 min
  9. Overall bit rate mode                    : Variable
  10. Overall bit rate                         : 9 154 kb/s
  11. Encoded date                             : UTC 2022-04-22 03:19:58
  12. Writing application                      : mkvmerge v49.0.0 ('Sick Of Losing Soulmates') 64-bit
  13. Writing library                          : libebml v1.4.0 + libmatroska v1.6.1
  14. Video
  15. ID                                       : 1
  16. Format                                   : HEVC
  17. Format/Info                              : High Efficiency Video Coding
  18. Format profile                           : Main 10@L5.1@High
  19. Codec ID                                 : V_MPEGH/ISO/HEVC
  20. Duration                                 : 2 h 2 min
  21. Bit rate                                 : 5 888 kb/s
  22. Width                                    : 1 920 pixels
  23. Height                                   : 720 pixels
  24. Display aspect ratio                     : 2.667
  25. Frame rate mode                          : Constant
  26. Frame rate                               : 24.000 FPS
  27. Color space                              : YUV
  28. Chroma subsampling                       : 4:2:0
  29. Bit depth                                : 10 bits
  30. Bits/(Pixel*Frame)                       : 0.177
  31. Stream size                              : 5.03 GiB (64%)
  32. Title                                    : HEVC, x265Main10@L5.1@High, 24 fps @ 5887 kbps
  33. Writing library                          : x265 3.5+36-1f2c8da77:[Windows][GCC 11.2.0][64 bit] 10bit
  34. Encoding settings                        : cpuid=533541111039 / frame-threads=4 / numa-pools=16 / wpp / pmode / pme / no-psnr / no-ssim / log-level=2 / input-csp=1 / input-res=1920x720 / interlace=0 / total-frames=176259 / level-idc=51 / high-tier=1 / uhd-bd=0 / ref=5 / no-allow-non-conformance / no-repeat-headers / annexb / no-aud / no-eob / no-eos / no-hrd / info / hash=0 / no-temporal-layers / open-gop / min-keyint=24 / keyint=240 / gop-lookahead=0 / bframes=6 / b-adapt=2 / b-pyramid / bframe-bias=0 / rc-lookahead=40 / lookahead-slices=0 / NTMzNTQ=uuDQuD2mJt9fsCf / scenecut=40 / no-hist-scenecut / radl=0 / no-splice / no-intra-refresh / ctu=32 / min-cu-size=8 / no-rect / no-amp / max-tu-size=32 / tu-inter-depth=3 / tu-intra-depth=3 / limit-tu=4 / rdoq-level=2 / dynamic-rd=0.00 / no-ssim-rd / signhide / no-tskip / nr-intra=0 / nr-inter=0 / no-constrained-intra / no-strong-intra-smoothing / max-merge=4 / limit-refs=1 / limit-modes / me=3 / subme=4 / merange=25 / temporal-mvp / no-frame-dup / no-hme / weightp / weightb / no-analyze-src-pics / deblock=-3:-3 / no-sao / no-sao-non-deblock / rd=6 / selective-sao=0 / no-early-skip / rskip / no-fast-intra / no-tskip-fast / no-cu-lossless / b-intra / no-splitrd-skip / rdpenalty=0 / psy-rd=2.00 / psy-rdoq=1.00 / no-rd-refine / no-lossless / cbqpoffs=0 / crqpoffs=0 / rc=crf / crf=17.0 / qcomp=0.65 / qpstep=4 / stats-write=0 / stats-read=0 / vbv-maxrate=80000 / vbv-bufsize=80000 / vbv-init=0.9 / min-vbv-fullness=50.0 / max-vbv-fullness=80.0 / crf-max=0.0 / crf-min=0.0 / ipratio=1.40 / pbratio=1.30 / aq-mode=2 / aq-strength=0.85 / cutree / zone-count=0 / no-strict-cbr / qg-size=32 / no-rc-grain / qpmax=69 / qpmin=0 / no-const-vbv / sar=1 / overscan=0 / videoformat=5 / range=0 / colorprim=1 / transfer=1 / colormatrix=1 / chromaloc=0 / display-window=0 / cll=0,0 / min-luma=0 / max-luma=1023 / log2-max-poc-lsb=8 / vui-timing-info / vui-hrd-info / slices=1 / no-opt-qp-pps / no-opt-ref-list-length-pps / no-multi-pass-opt-rps / scenecut-bias=0.05 / hist-threshold=0.03 / no-opt-cu-delta-qp / no-aq-motion / no-hdr10 / no-hdr10-opt / no-dhdr10-opt / no-idr-recovery-sei / analysis-reuse-level=0 / analysis-save-reuse-level=0 / analysis-load-reuse-level=0 / scale-factor=0 / refine-intra=0 / refine-inter=0 / refine-mv=1 / refine-ctu-distortion=0 / no-limit-sao / ctu-info=0 / no-lowpass-dct / refine-analysis-type=0 / copy-pic=1 / max-ausize-factor=1.0 / no-dynamic-refine / no-single-sei / no-hevc-aq / no-svt / no-field / qp-adaptation-range=1.00 / scenecut-aware-qp=0conformance-window-offsets / right=0 / bottom=0 / NTMzNTQ= / decoder-max-rate=0 / no-vbv-live-multi-pass
  35. Language                                 : English
  36. Default                                  : Yes
  37. Forced                                   : No
  38. Color range                              : Limited
  39. Color primaries                          : BT.709
  40. Transfer characteristics                 : BT.709
  41. Matrix coefficients                      : BT.709
  42. Audio
  43. ID                                       : 2
  44. Format                                   : DTS XLL
  45. Format/Info                              : Digital Theater Systems
  46. Commercial name                          : DTS-HD Master Audio
  47. Codec ID                                 : A_DTS
  48. Duration                                 : 2 h 2 min
  49. Bit rate mode                            : Variable
  50. Bit rate                                 : 3 239 kb/s
  51. Channel(s)                               : 6 channels
  52. Channel layout                           : C L R Ls Rs LFE
  53. Sampling rate                            : 48.0 kHz
  54. Frame rate                               : 93.750 FPS (512 SPF)
  55. Bit depth                                : 24 bits
  56. Compression mode                         : Lossless
  57. Stream size                              : 2.77 GiB (35%)
  58. Title                                    : Mandarin DTS-HD Master Audio 5.1 @ 3239?kbps
  59. Language                                 : Chinese
  60. Default                                  : Yes
  61. Forced                                   : No
  62. Text #1
  63. ID                                       : 3
  64. Format                                   : PGS
  65. Codec ID                                 : S_HDMV/PGS
  66. Codec ID/Info                            : Picture based subtitle format used on BDs/HD-DVDs
  67. Duration                                 : 1 h 53 min
  68. Bit rate                                 : 12.6 kb/s
  69. Count of elements                        : 1990
  70. Stream size                              : 10.2 MiB (0%)
  71. Title                                    : Chs/SUP  简体
  72. Language                                 : Chinese
  73. Default                                  : Yes
  74. Forced                                   : No
  75. Text #2
  76. ID                                       : 4
  77. Format                                   : PGS
  78. Codec ID                                 : S_HDMV/PGS
  79. Codec ID/Info                            : Picture based subtitle format used on BDs/HD-DVDs
  80. Duration                                 : 1 h 53 min
  81. Bit rate                                 : 13.1 kb/s
  82. Count of elements                        : 1990
  83. Stream size                              : 10.6 MiB (0%)
  84. Title                                    : Cht/SUP  繁体
  85. Language                                 : Chinese
  86. Default                                  : No
  87. Forced                                   : No
  88. Menu
  89. 00:00:00.000                             : en:第 01 章
  90. 00:07:25.875                             : en:第 02 章
  91. 00:17:43.083                             : en:第 03 章
  92. 00:27:09.292                             : en:第 04 章
  93. 00:35:08.208                             : en:第 05 章
  94. 00:42:38.000                             : en:第 06 章
  95. 00:53:03.917                             : en:第 07 章
  96. 01:00:01.417                             : en:第 08 章
  97. 01:04:08.083                             : en:第 09 章
  98. 01:17:02.542                             : en:第 10 章
  99. 01:27:58.833                             : en:第 11 章
  100. 01:34:11.458                             : en:第 12 章
  101. 01:43:17.583                             : en:第 13 章
  102. 01:54:41.208                             : en:第 14 章




下载地址:

The.Wasted.Times.2016.BluRay.1080p.DTS-HD.MA.5.1.x265.10bit-ALT.torrent

BT9527电影天堂 1、BT9527电影天堂提供的BT文件均来源于互联网抓取,只供网友学习交流、技术提升使用。
2、我们遵守BitTorrent点对点协议原则,任何版权问题请联系原资源发布商,我们不处理任何版权纠纷,谢谢!如有争议请联系邮箱:BT9527#hotmail.com(#换成@)
3、如果您发现某页面或地址有错误,请联系站长邮箱BT9527#hotmail.com(#换成@),我们会尽快处理。您的热心是对BT9527电影天堂最大的支持。
4、本站建议去正规影院观看电影以支持电影行业发展。
最新回复 (1)
  • 天籁之音 18天前
    2
    葛优这部电影还没看过,谢谢分享!

你可以在 登录 or 注册 后,对此帖发表评论!

返回
发新帖