怒火·重案[国粤英多音轨/简繁英字幕].Raging.Fire.2021.UHD.BluRay.2160p.2Audio.TrueHD.Atmos.7.1.x265.10bit.HDR-ALT 13.65GB

版主小s 5月前 520

✔资源类型:BD-4K   ✔电影年份:2021   ✔电影地区:香港   ✔电影分类:动作

◎标  题 怒火·重案
◎译  名 怒火重案 / 怒火战 / 火拼 / Crossfire / Raging Fire
◎片  名 怒火
◎年  代 2021
◎产  地 中国香港 / 中国大陆
◎类  别 动作 / 犯罪
◎语  言 粤语 / 汉语普通话
◎上映日期 2021-07-30(中国大陆) / 2021-08-19(中国香港)
◎IMDb评分 6.8/10 (2251人评价)
◎IMDb链接 https://www.imdb.com/title/tt8165192/
◎豆瓣评分 7.2/10 (359420人评价)
◎豆瓣链接 https://movie.douban.com/subject/30174085/
◎片  长 128分钟
◎导  演 陈木胜 Benny Chan
◎编  剧 陈木胜 Benny Chan
       凌伟骏 Ryan Wai-Chun Ling
       唐耀良 Yiu-leung Tong
◎演  员 甄子丹 Donnie Yen
       谢霆锋 Nicholas Tse
       秦岚 Lan Qin
       谭耀文 Patrick Tam
       黄德斌 Tak-bun Wong
       吴浩康 Deep Ng
       何珮瑜 Jeana Ho
       杨天宇 Angus Yeung
       汤君慈 Bruce Tong
       麦亨利 Henry Mai
       喻亢 Kang Yu
       张文杰 Man Kit Cheung
       胡子彤 Tony Tsz-Tung Wu
       吕良伟 Ray Lui
       任达华 Simon Yam
       袁富华 Fu-wah Yuen
       林国斌 Ben Lam
       卢惠光 Ken Lo
       陈家乐 Carlos Chan
       张国强 Kwok Keung Cheung
       汤怡 Kathy Tong
       高战 Chris Collins
       辛格·哈提汗·比托 Singh Hartihan Bitto
       克里斯·柯林斯 K.C. Collins
       何俊轩 Ho Chun Hin
       蒙为亮 Mung Wai Leong
       骆振伟 Thor Lok
       郑咏谦 Moses Wing-Him Cheng
       张颖富
       谭干聪 Kon Chung Tam
       杜港 Kong To
       高俊文 Chun-Man Ko
       周祉君 Aaron Chow
       梁雍婷 Rachel Leung
       邹凯光 Matt Chow
       火火 Fire Lee Ka Wing
       罗浩铭 Ken Ho-Ming Law
       李凯贤 Brian Lee
       郭锋 Fung Kwok
       郭政鸿 Jing-hung Kwok
       麦长青 Cheung-Ching Mak
       陈木胜 Benny Chan
       甄子丹 Donnie Yen
       邵剑秋 Kim-Chau Shiu
       陈一奇 Yiqi Chen
       程武 Wu Cheng
       杨受成 Albert Yeung
       高莉 Anna Gao
       郑志昊 Zhihao Zheng
       李绮雯 Yee-Man Lee
       杨雪雯
       区椲麟
       梁琳 Lin Liang
       黎子良 Bernard Lai
       林明杰 Eric Lin
       张博
       张康达 Hong Tat Cheung
       谢炀
       贾淕 Lu Jia
       尼古拉斯·埃热拉 Nicolas Errèra
       冯远文 Yuen Man Fung
       彭正熙 Curran Pang
       周德夫
       陈嘉仪 Furze Chan
       梁伟民 Raymond Wai-Man Leung
       林洪峯 Alex Lim Hung Fung
       李忠志 Chung Chi Li
       谷垣健治 Kenji Tanigaki
       谷轩昭 Huan-Chiu Ku
       甄子丹 Donnie Yen
       潘耀明 Anthony Pun
       岑建勋 John Sham

◎标  签 警匪 / 中国香港 / 动作 / 犯罪 / 枪战 / 2021 / 悬疑 / 中国大陆

◎简  介
  重案组布网围剿国际毒枭,突然杀出一组蒙面悍匪“黑吃黑”,更冷血屠杀众警察。重案组督察张崇邦(甄子丹 饰)亲睹战友被杀,深入追查发现,悍匪首领竟是昔日战友邱刚敖(谢霆锋 饰)。原来敖也曾是警队明日之星,而将敖推向罪恶深渊的人,却正是邦。宿命令二人再次纠缠,一切恩怨张崇邦如何作出了断……
  1. ##### MediaInfo ######
  2. General
  3. Unique ID                                : 179938602924538570303884302090173397129 (0x875EEA12FEFFD4E382C3A02DE087B889)
  4. Complete name                            : Raging.Fire.2021.UHD.BluRay.2160p.2Audio.TrueHD.Atmos.7.1.x265.10bit.HDR-ALT.mkv
  5. Format                                   : Matroska
  6. Format version                           : Version 4
  7. File size                                : 13.6 GiB
  8. Duration                                 : 2 h 5 min
  9. Overall bit rate mode                    : Variable
  10. Overall bit rate                         : 15.5 Mb/s
  11. Encoded date                             : UTC 2022-02-19 02:37:08
  12. Writing application                      : mkvmerge v49.0.0 ('Sick Of Losing Soulmates') 64-bit
  13. Writing library                          : libebml v1.4.0 + libmatroska v1.6.1
  14. Video
  15. ID                                       : 1
  16. Format                                   : HEVC
  17. Format/Info                              : High Efficiency Video Coding
  18. Format profile                           : Main 10@L5.1@High
  19. HDR format                               : SMPTE ST 2086, HDR10 compatible
  20. Codec ID                                 : V_MPEGH/ISO/HEVC
  21. Duration                                 : 2 h 5 min
  22. Bit rate                                 : 8 090 kb/s
  23. Width                                    : 3 840 pixels
  24. Height                                   : 1 608 pixels
  25. Display aspect ratio                     : 2.40:1
  26. Frame rate mode                          : Constant
  27. Frame rate                               : 23.976 (24000/1001/53354) FPS
  28. Color space                              : YUV
  29. Chroma subsampling                       : 4:2:0 (Type 2)
  30. Bit depth                                : 10 bits
  31. Bits/(Pixel*Frame)                       : 0.055
  32. Stream size                              : 7.11 GiB (52%)
  33. Title                                    : HEVC, x265Main10@L5.1@High, 24/1.001 fps @ 8089 kbps
  34. Writing library                          : x265 3.4+14-gd419c7152:[Windows][GCC 10.2.0][64 bit] 10bit
  35. Encoding settings                        : cpuid=533541111039 / frame-threads=4 / numa-pools=20 / wpp / pmode / pme / no-psnr / no-ssim / log-level=2 / input-csp=1 / input-res=3840x1608 / interlace=0 / total-frames=181115 / level-idc=51 / high-tier=1 / uhd-bd=0 / ref=4 / no-allow-non-conformance / repeat-headers / annexb / no-aud / hrd / info / hash=0 / no-temporal-layers / no-open-gop / min-keyint=24 / keyint=240 / gop-lookahead=0 / bframes=8 / b-adapt=2 / b-pyramid / bframe-bias=0 / rc-lookahead=25 / lookahead-slices=0 / NTMzNTQ=uuDQuD2mJt9fsCf / scenecut=40 / hist-scenecut=0 / radl=0 / no-splice / no-intra-refresh / ctu=64 / min-cu-size=8 / no-rect / no-amp / max-tu-size=32 / tu-inter-depth=3 / tu-intra-depth=3 / limit-tu=4 / rdoq-level=2 / dynamic-rd=0.00 / no-ssim-rd / signhide / no-tskip / nr-intra=0 / nr-inter=0 / no-constrained-intra / no-strong-intra-smoothing / max-merge=4 / limit-refs=1 / limit-modes / me=3 / subme=4 / merange=25 / temporal-mvp / no-frame-dup / no-hme / weightp / weightb / no-analyze-src-pics / deblock=-3:-3 / no-sao / no-sao-non-deblock / rd=6 / selective-sao=0 / no-early-skip / rskip / no-fast-intra / no-tskip-fast / no-cu-lossless / b-intra / no-splitrd-skip / rdpenalty=0 / psy-rd=2.00 / psy-rdoq=1.00 / no-rd-refine / no-lossless / cbqpoffs=0 / crqpoffs=0 / rc=crf / crf=17.0 / qcomp=0.65 / qpstep=4 / stats-write=0 / stats-read=0 / vbv-maxrate=160000 / vbv-bufsize=160000 / vbv-init=0.9 / crf-max=0.0 / crf-min=0.0 / ipratio=1.30 / pbratio=1.20 / aq-mode=3 / aq-strength=0.85 / cutree / zone-count=0 / no-strict-cbr / qg-size=32 / no-rc-grain / qpmax=69 / qpmin=0 / no-const-vbv / sar=1 / overscan=0 / videoformat=5 / range=0 / colorprim=9 / transfer=16 / colormatrix=9 / chromaloc=1 / chromaloc-top=2 / chromaloc-bottom=2 / display-window=0 / master-display=G(13250,34500)B(7500,3000)R(34000,16000)WP(15635,16450)L(10000000,10) / cll=1000,400 / min-luma=0 / max-luma=1023 / log2-max-poc-lsb=8 / vui-timing-info / vui-hrd-info / slices=1 / no-opt-qp-pps / no-opt-ref-list-length-pps / no-multi-pass-opt-rps / scenecut-bias=0.05 / hist-threshold=0.03 / no-opt-cu-delta-qp / no-aq-motion / hdr10 / hdr10-opt / no-dhdr10-opt / no-idr-recovery-sei / analysis-reuse-level=0 / analysis-save-reuse-level=0 / analysis-load-reuse-level=0 / scale-factor=0 / refine-intra=0 / refine-inter=0 / refine-mv=1 / refine-ctu-distortion=0 / no-limit-sao / ctu-info=0 / no-lowpass-dct / refine-analysis-type=0 / copy-pic=1 / max-ausize-factor=1.0 / no-dynamic-refine / no-single-sei / no-hevc-aq / no-svt / no-field / qp-adaptation-range=1.00 / no-scenecut-aware-qpconformance-window-offsets / right=0 / bottom=0 / NTMzNTQ= / decoder-max-rate=0
  36. Language                                 : English
  37. Default                                  : Yes
  38. Forced                                   : No
  39. Color range                              : Limited
  40. Color primaries                          : BT.2020
  41. Transfer characteristics                 : PQ
  42. Matrix coefficients                      : BT.2020 non-constant
  43. Mastering display color primaries        : Display P3
  44. Mastering display luminance              : min: 0.0010 cd/m2, max: 1000 cd/m2
  45. Maximum Content Light Level              : 1000 cd/m2
  46. Maximum Frame-Average Light Level        : 400 cd/m2
  47. Audio #1
  48. ID                                       : 2
  49. Format                                   : MLP FBA 16-ch
  50. Format/Info                              : Meridian Lossless Packing FBA with 16-channel presentation
  51. Commercial name                          : Dolby TrueHD with Dolby Atmos
  52. Codec ID                                 : A_TRUEHD
  53. Duration                                 : 2 h 5 min
  54. Bit rate mode                            : Variable
  55. Bit rate                                 : 5 132 kb/s
  56. Maximum bit rate                         : 10.8 Mb/s
  57. Channel(s)                               : 8 channels
  58. Channel layout                           : L R C LFE Ls Rs Lb Rb
  59. Sampling rate                            : 48.0 kHz
  60. Frame rate                               : 1 200.000 FPS (40 SPF)
  61. Compression mode                         : Lossless
  62. Stream size                              : 4.51 GiB (33%)
  63. Title                                    : Cantonese Dolby TrueHD 7.1 @ 5772 kbps
  64. Language                                 : Chinese
  65. Default                                  : Yes
  66. Forced                                   : No
  67. Number of dynamic objects                : 15
  68. Bed channel count                        : 1 channel
  69. Bed channel configuration                : LFE
  70. Audio #2
  71. ID                                       : 3
  72. Format                                   : AC-3
  73. Format/Info                              : Audio Coding 3
  74. Commercial name                          : Dolby Digital
  75. Codec ID                                 : A_AC3
  76. Duration                                 : 2 h 5 min
  77. Bit rate mode                            : Constant
  78. Bit rate                                 : 640 kb/s
  79. Channel(s)                               : 6 channels
  80. Channel layout                           : L R C LFE Ls Rs
  81. Sampling rate                            : 48.0 kHz
  82. Frame rate                               : 31.250 FPS (1536 SPF)
  83. Compression mode                         : Lossy
  84. Stream size                              : 576 MiB (4%)
  85. Title                                    : Cantonese Dolby Digital Audio 5.1 @ 640 kbps
  86. Language                                 : Chinese
  87. Service kind                             : Complete Main
  88. Default                                  : No
  89. Forced                                   : No
  90. Audio #3
  91. ID                                       : 4
  92. Format                                   : DTS
  93. Format/Info                              : Digital Theater Systems
  94. Codec ID                                 : A_DTS
  95. Duration                                 : 2 h 5 min
  96. Bit rate mode                            : Constant
  97. Bit rate                                 : 1 509 kb/s
  98. Channel(s)                               : 6 channels
  99. Channel layout                           : C L R Ls Rs LFE
  100. Sampling rate                            : 48.0 kHz
  101. Frame rate                               : 93.750 FPS (512 SPF)
  102. Bit depth                                : 24 bits
  103. Compression mode                         : Lossy
  104. Stream size                              : 1.33 GiB (10%)
  105. Title                                    : Mandarin DTS 5.1 @ 1509 kbps
  106. Language                                 : Chinese
  107. Default                                  : No
  108. Forced                                   : No
  109. Text #1
  110. ID                                       : 5
  111. Format                                   : PGS
  112. Codec ID                                 : S_HDMV/PGS
  113. Codec ID/Info                            : Picture based subtitle format used on BDs/HD-DVDs
  114. Duration                                 : 1 h 56 min
  115. Bit rate                                 : 29.9 kb/s
  116. Count of elements                        : 2753
  117. Stream size                              : 24.9 MiB (0%)
  118. Title                                    : Eng/SUP
  119. Language                                 : English
  120. Default                                  : No
  121. Forced                                   : No
  122. Text #2
  123. ID                                       : 6
  124. Format                                   : PGS
  125. Codec ID                                 : S_HDMV/PGS
  126. Codec ID/Info                            : Picture based subtitle format used on BDs/HD-DVDs
  127. Duration                                 : 1 h 58 min
  128. Bit rate                                 : 26.2 kb/s
  129. Count of elements                        : 2771
  130. Stream size                              : 22.1 MiB (0%)
  131. Title                                    : Chs/SUP  简体
  132. Language                                 : Chinese
  133. Default                                  : Yes
  134. Forced                                   : No
  135. Text #3
  136. ID                                       : 7
  137. Format                                   : PGS
  138. Codec ID                                 : S_HDMV/PGS
  139. Codec ID/Info                            : Picture based subtitle format used on BDs/HD-DVDs
  140. Duration                                 : 1 h 58 min
  141. Bit rate                                 : 26.7 kb/s
  142. Count of elements                        : 2771
  143. Stream size                              : 22.5 MiB (0%)
  144. Title                                    : Cht/SUP  繁体
  145. Language                                 : Chinese
  146. Default                                  : No
  147. Forced                                   : No
  148. Menu
  149. 00:00:00.000                             : en:第 01 章
  150. 00:10:43.935                             : en:第 02 章
  151. 00:21:28.245                             : en:第 03 章
  152. 00:32:54.973                             : en:第 04 章
  153. 00:44:41.345                             : en:第 05 章
  154. 00:54:57.753                             : en:第 06 章
  155. 01:05:26.965                             : en:第 07 章
  156. 01:16:56.737                             : en:第 08 章
  157. 01:27:59.274                             : en:第 09 章
  158. 01:38:56.722                             : en:第 10 章
  159. 01:49:12.838                             : en:第 11 章
  160. 02:00:56.416                             : en:第 12 章




下载地址:

Raging.Fire.2021.UHD.BluRay.2160p.2Audio.TrueHD.Atmos.7.1.x265.10bit.HDR-ALT.torrent

BT9527电影天堂 1、BT9527电影天堂提供的BT文件均来源于互联网抓取,只供网友学习交流、技术提升使用。
2、我们遵守BitTorrent点对点协议原则,任何版权问题请联系原资源发布商,我们不处理任何版权纠纷,谢谢!如有争议请联系邮箱:BT9527#hotmail.com(#换成@)
3、如果您发现某页面或地址有错误,请联系站长邮箱BT9527#hotmail.com(#换成@),我们会尽快处理。您的热心是对BT9527电影天堂最大的支持。
4、本站建议去正规影院观看电影以支持电影行业发展。
最新回复 (1)
  • 天籁之音 19天前
    2
    谢谢分享,洗版收藏,之前下的德版没有国语音轨!

你可以在 登录 or 注册 后,对此帖发表评论!

返回
发新帖