男孩遇见男孩[简繁英字幕].Boy.Meets.Boy.2021.1080p.GL.WEB-DL.H264.AAC-TAGWEB 2.14GB

版主小s 2月前 115

✔资源类型:WEB-1080P   ✔电影年份:2021   ✔电影地区:其他   ✔电影分类:剧情

◎标  题 男孩遇见男孩
◎译  名 亨利的柏林假期(台)
◎片  名 Boy Meets Boy
◎年  代 2021
◎产  地 德国
◎类  别 剧情 / 同性
◎语  言 德语 / 英语
◎上映日期 2021-03-01(德国)
◎IMDb评分 5.2/10 (346人评价)
◎IMDb链接 https://www.imdb.com/title/tt13316820/
◎豆瓣链接 https://movie.douban.com/subject/35261857/
◎片  长 75分钟

◎标  签 2021 / 德国 / LGBT / 同性 / 剧情 / 德国电影 / 英国 / 电影

◎简  介
  Harry has been partying for 48 hours when he meets Johannes on the dance floor of a club in Berlin. With 15 hours until his flight home, Johannes offers to help him print his boarding pass. This mundane task leads to a day together wandering the city. The contrasts in their lives and values force each one to confront their own truths. Boys Meet Boys is a feature length mumbleco...
  1. ##### MediaInfo ######
  2. General
  3. Unique ID                                : 174576505879313541921250613708278773842 (0x835636475519D018E5FD097661B0B852)
  4. Complete name                            : Boy.Meets.Boy.2021.1080p.GL.WEB-DL.H264.AAC-TAGWEB.mkv
  5. Format                                   : Matroska
  6. Format version                           : Version 4
  7. File size                                : 2.14 GiB
  8. Duration                                 : 1 h 9 min
  9. Overall bit rate                         : 4 396 kb/s
  10. Encoded date                             : UTC 2022-03-25 03:40:34
  11. Writing application                      : mkvmerge v66.0.0 ('Josie') 64-bit
  12. Writing library                          : libebml v1.4.2 + libmatroska v1.6.4
  13. Video
  14. ID                                       : 1
  15. Format                                   : AVC
  16. Format/Info                              : Advanced Video Codec
  17. Format profile                           : High@L5
  18. Format settings                          : CABAC / 5 Ref Frames
  19. Format settings, CABAC                   : Yes
  20. Format settings, Reference frames        : 5 frames
  21. Codec ID                                 : V_MPEG4/ISO/AVC
  22. Duration                                 : 1 h 9 min
  23. Bit rate                                 : 4 268 kb/s
  24. Width                                    : 1 920 pixels
  25. Height                                   : 1 080 pixels
  26. Display aspect ratio                     : 16:9
  27. Frame rate mode                          : Constant
  28. Frame rate                               : 25.000 FPS
  29. Color space                              : YUV
  30. Chroma subsampling                       : 4:2:0
  31. Bit depth                                : 8 bits
  32. Scan type                                : Progressive
  33. Bits/(Pixel*Frame)                       : 0.082
  34. Stream size                              : 2.07 GiB (97%)
  35. Default                                  : Yes
  36. Forced                                   : No
  37. Audio
  38. ID                                       : 2
  39. Format                                   : AAC LC
  40. Format/Info                              : Advanced Audio Codec Low Complexity
  41. Codec ID                                 : A_AAC-2
  42. Duration                                 : 1 h 9 min
  43. Bit rate                                 : 125 kb/s
  44. Channel(s)                               : 2 channels
  45. Channel layout                           : L R
  46. Sampling rate                            : 48.0 kHz
  47. Frame rate                               : 46.875 FPS (1024 SPF)
  48. Compression mode                         : Lossy
  49. Stream size                              : 62.4 MiB (3%)
  50. Default                                  : Yes
  51. Forced                                   : No
  52. Text #1
  53. ID                                       : 3
  54. Format                                   : UTF-8
  55. Codec ID                                 : S_TEXT/UTF8
  56. Codec ID/Info                            : UTF-8 Plain Text
  57. Duration                                 : 1 h 0 min
  58. Bit rate                                 : 52 b/s
  59. Count of elements                        : 697
  60. Stream size                              : 23.4 KiB (0%)
  61. Title                                    : Simplified Chinese
  62. Language                                 : Chinese
  63. Default                                  : Yes
  64. Forced                                   : No
  65. Text #2
  66. ID                                       : 4
  67. Format                                   : UTF-8
  68. Codec ID                                 : S_TEXT/UTF8
  69. Codec ID/Info                            : UTF-8 Plain Text
  70. Duration                                 : 1 h 0 min
  71. Bit rate                                 : 52 b/s
  72. Count of elements                        : 697
  73. Stream size                              : 23.4 KiB (0%)
  74. Title                                    : Traditional Chinese
  75. Language                                 : Chinese
  76. Default                                  : No
  77. Forced                                   : No
  78. Text #3
  79. ID                                       : 5
  80. Format                                   : UTF-8
  81. Codec ID                                 : S_TEXT/UTF8
  82. Codec ID/Info                            : UTF-8 Plain Text
  83. Duration                                 : 1 h 4 min
  84. Bit rate                                 : 52 b/s
  85. Count of elements                        : 698
  86. Stream size                              : 25.1 KiB (0%)
  87. Title                                    : English
  88. Language                                 : English
  89. Default                                  : No
  90. Forced                                   : No
  91. Text #4
  92. ID                                       : 6
  93. Format                                   : UTF-8
  94. Codec ID                                 : S_TEXT/UTF8
  95. Codec ID/Info                            : UTF-8 Plain Text
  96. Duration                                 : 1 h 4 min
  97. Bit rate                                 : 56 b/s
  98. Count of elements                        : 698
  99. Stream size                              : 26.9 KiB (0%)
  100. Title                                    : Indonesian
  101. Language                                 : Indonesian
  102. Default                                  : No
  103. Forced                                   : No
  104. Text #5
  105. ID                                       : 7
  106. Format                                   : UTF-8
  107. Codec ID                                 : S_TEXT/UTF8
  108. Codec ID/Info                            : UTF-8 Plain Text
  109. Duration                                 : 1 h 0 min
  110. Bit rate                                 : 158 b/s
  111. Count of elements                        : 697
  112. Stream size                              : 69.9 KiB (0%)
  113. Title                                    : Thai
  114. Language                                 : Thai
  115. Default                                  : No
  116. Forced                                   : No




下载地址:

Boy.Meets.Boy.2021.1080p.GL.WEB-DL.H264.AAC-TAGWEB.torrent

BT9527电影天堂 1、BT9527电影天堂提供的BT文件均来源于互联网抓取,只供网友学习交流、技术提升使用。
2、我们遵守BitTorrent点对点协议原则,任何版权问题请联系原资源发布商,我们不处理任何版权纠纷,谢谢!如有争议请联系邮箱:BT9527#hotmail.com(#换成@)
3、如果您发现某页面或地址有错误,请联系站长邮箱BT9527#hotmail.com(#换成@),我们会尽快处理。您的热心是对BT9527电影天堂最大的支持。
4、本站建议去正规影院观看电影以支持电影行业发展。
最新回复 (0)

你可以在 登录 or 注册 后,对此帖发表评论!

返回
发新帖