成长边缘[简繁英字幕].The.Edge.of.Seventeen.2016.1080p.BluRay.DDP7.1.x264-MOMOHD 10.37GB

版主小s 2月前 151

✔资源类型:BD-1080P   ✔电影年份:2016   ✔电影地区:欧美   ✔电影分类:剧情

◎标  题 成长边缘
◎译  名 十七岁的边缘 / Besties
◎片  名 The Edge of Seventeen
◎年  代 2016
◎产  地 美国
◎类  别 剧情 / 喜剧
◎语  言 英语
◎上映日期 2016-09-16(多伦多电影节) / 2016-11-18(美国)
◎IMDb评分 7.3/10 (115811人评价)
◎IMDb链接 https://www.imdb.com/title/tt1878870/
◎豆瓣评分 7.6/10 (32551人评价)
◎豆瓣链接 https://movie.douban.com/subject/6873905/
◎片  长 104分钟
◎导  演 凯莉·弗莱蒙·克雷格 Kelly Fremon Craig
◎编  剧 凯莉·弗莱蒙·克雷格 Kelly Fremon Craig
◎演  员 海莉·斯坦菲尔德 Hailee Steinfeld
       海莉·露·理查森 Haley Lu Richardson
       布莱克·詹纳 Blake Jenner
       凯拉·塞吉维克 Kyra Sedgwick
       伍迪·哈里森 Woody Harrelson
       司徒颂曦 Hayden Szeto
       亚历山大·卡尔弗特 Alexander Calvert
       埃里克·李塞德 Eric Keenleyside
       内斯塔·库珀 Nesta Cooper
       丹尼尔·巴孔 Daniel Bacon
       丽娜·伦纳 Lina Renna
       阿瓦·格雷斯·库珀 Ava Grace Cooper
       克里斯蒂安·迈克尔·库珀 Christian Michael Cooper
       耶拿·斯科迪耶 Jena Skodje
       梅乐迪丝·梦露 Meredith Monroe
       詹姆斯·L·布鲁克斯 James L. Brooks
       王中磊 Zhonglei Wang
       杰姬·R·雅各布森 Jackie R. Jacobson

◎标  签 青春 / 成长 / 美国 / 校园 / 喜剧 / 2016 / 爱情 / 剧情

◎简  介
  娜丁(海莉·斯坦菲尔德 Hailee Steinfeld 饰)从小就是一个性格古怪孤僻不合群的姑娘,因此常常受到同学的欺负。克里斯塔(海莉·路·理查森 Haley Lu Richardson 饰)好像一道光,照亮娜丁的生活,她们从相识起便形影不离,互相分享快乐和秘密,时光荏苒,两个女孩长大走进了高中校园,她们之间的感情从未改变。                                    
                                娜丁的哥哥达里安(布莱克·詹纳 Blake Jenner 饰)英俊帅气阳光开朗,他的存在衬得愤世嫉俗少年老成的娜丁显得更加不合时宜,但娜丁不在意,因为她拥有克里斯塔的友谊。然而某一日,娜丁震惊的发现克里斯塔和达里安竟然躺到了一张床上,与此同时,娜丁爱上了名为尼克(亚历山大·卡尔弗特 Alexander Calvert 饰)的男生,可她根本无法打入他所在的圈子。
  1. ##### MediaInfo ######
  2. General
  3. Unique ID                                : 172510427064992666638843176359042579033 (0x81C84CBA790D09C352EE335D5B357A59)
  4. Complete name                            : The.Edge.of.Seventeen.2016.1080p.BluRay.DDP7.1.x264-MOMOHD.mkv
  5. Format                                   : Matroska
  6. Format version                           : Version 4
  7. File size                                : 10.4 GiB
  8. Duration                                 : 1 h 45 min
  9. Overall bit rate                         : 14.1 Mb/s
  10. Movie name                               : The Edge of Seventeen 2016 1080p BluRay DDP7.1 x264-PTer
  11. Encoded date                             : UTC 2022-09-29 02:54:30
  12. Writing application                      : mkvmerge v43.0.0 ('The Quartermaster') 64-bit
  13. Writing library                          : libebml v1.3.10 + libmatroska v1.5.2
  14. Video
  15. ID                                       : 1
  16. Format                                   : AVC
  17. Format/Info                              : Advanced Video Codec
  18. Format profile                           : High@L4.1
  19. Format settings                          : CABAC / 4 Ref Frames
  20. Format settings, CABAC                   : Yes
  21. Format settings, Reference frames        : 4 frames
  22. Codec ID                                 : V_MPEG4/ISO/AVC
  23. Duration                                 : 1 h 44 min
  24. Bit rate                                 : 12.6 Mb/s
  25. Width                                    : 1 920 pixels
  26. Height                                   : 1 038 pixels
  27. Display aspect ratio                     : 1.85:1
  28. Frame rate mode                          : Constant
  29. Frame rate                               : 23.976 (24000/1001/53354) FPS
  30. Color space                              : YUV
  31. Chroma subsampling                       : 4:2:0
  32. Bit depth                                : 8 bits
  33. Scan type                                : Progressive
  34. Bits/(Pixel*Frame)                       : 0.264
  35. Stream size                              : 9.25 GiB (89%)
  36. Title                                    : English
  37. Writing library                          : x264 core 164 r3094 bfc87b7
  38. Encoding settings                        : cabac=1 / ref=4 / deblock=1:-3:-3 / analyse=0x3:0x133 / me=umh / subme=11 / psy=1 / psy_rd=1.02:0.00 / mixed_ref=1 / me_range=32 / chroma_me=1 / trellis=2 / 8x8dct=1 / cqm=0 / deadzone=21,11 / fast_pskip=0 / chroma_qp_offset=-2 / threads=18 / lookahead_threads=4 / sliced_threads=0 / nr=0 / decimate=0 / interlaced=0 / NTMzNTQ= / bluray_compat=0 / constrained_intra=0 / bframes=16 / b_pyramid=2 / b_adapt=2 / b_bias=0 / direct=3 / weightb=1 / open_gop=0 / weightp=2 / keyint=250 / keyint_min=23 / NTMzNTQ=uuDQuD2mJt9fsCf / scenecut=40 / intra_refresh=0 / rc_lookahead=250 / rc=crf / mbtree=0 / crf=18.2 / qcomp=0.60 / qpmin=0 / qpmax=69 / qpstep=4 / vbv_maxrate=62500 / vbv_bufsize=78125 / crf_max=0.0 / nal_hrd=none / filler=0 / NTMzNTQ=LmsMAP37EqsCpk / ip_ratio=1.30 / pb_ratio=1.20 / aq=3:0.80 / zones=142325,150940,crf=22
  39. Language                                 : English
  40. Default                                  : Yes
  41. Forced                                   : No
  42. Color range                              : Limited
  43. Color primaries                          : BT.709
  44. Matrix coefficients                      : BT.709
  45. Audio
  46. ID                                       : 2
  47. Format                                   : E-AC-3
  48. Format/Info                              : Enhanced AC-3
  49. Commercial name                          : Dolby Digital Plus
  50. Format profile                           : Blu-ray Disc
  51. Codec ID                                 : A_EAC3
  52. Duration                                 : 1 h 44 min
  53. Bit rate mode                            : Constant
  54. Bit rate                                 : 1 536 kb/s
  55. Channel(s)                               : 8 channels
  56. Channel layout                           : L R C LFE Ls Rs Lb Rb
  57. Sampling rate                            : 48.0 kHz
  58. Frame rate                               : 31.250 FPS (1536 SPF)
  59. Compression mode                         : Lossy
  60. Stream size                              : 1.13 GiB (11%)
  61. Title                                    : English
  62. Language                                 : English
  63. Service kind                             : Complete Main
  64. Default                                  : Yes
  65. Forced                                   : No
  66. Text #1
  67. ID                                       : 3
  68. Format                                   : UTF-8
  69. Codec ID                                 : S_TEXT/UTF8
  70. Codec ID/Info                            : UTF-8 Plain Text
  71. Duration                                 : 1 h 37 min
  72. Bit rate                                 : 63 b/s
  73. Count of elements                        : 1549
  74. Stream size                              : 45.4 KiB (0%)
  75. Title                                    : English SDH
  76. Language                                 : English
  77. Default                                  : No
  78. Forced                                   : No
  79. Text #2
  80. ID                                       : 4
  81. Format                                   : UTF-8
  82. Codec ID                                 : S_TEXT/UTF8
  83. Codec ID/Info                            : UTF-8 Plain Text
  84. Duration                                 : 1 h 43 min
  85. Bit rate                                 : 48 b/s
  86. Count of elements                        : 1318
  87. Stream size                              : 36.9 KiB (0%)
  88. Title                                    : Chinese (Simplified)
  89. Language                                 : Chinese
  90. Default                                  : No
  91. Forced                                   : No
  92. Text #3
  93. ID                                       : 5
  94. Format                                   : UTF-8
  95. Codec ID                                 : S_TEXT/UTF8
  96. Codec ID/Info                            : UTF-8 Plain Text
  97. Duration                                 : 1 h 43 min
  98. Bit rate                                 : 48 b/s
  99. Count of elements                        : 1318
  100. Stream size                              : 36.9 KiB (0%)
  101. Title                                    : Chinese (Traditional)
  102. Language                                 : Chinese
  103. Default                                  : No
  104. Forced                                   : No
  105. Menu
  106. 00:00:00.000                             : en:Chapter 01
  107. 00:03:47.018                             : en:Chapter 02
  108. 00:07:41.419                             : en:Chapter 03
  109. 00:10:02.644                             : en:Chapter 04
  110. 00:18:46.292                             : en:Chapter 05
  111. 00:23:21.483                             : en:Chapter 06
  112. 00:26:42.434                             : en:Chapter 07
  113. 00:32:06.716                             : en:Chapter 08
  114. 00:36:51.501                             : en:Chapter 09
  115. 00:43:17.553                             : en:Chapter 10
  116. 00:48:21.190                             : en:Chapter 11
  117. 00:53:15.192                             : en:Chapter 12
  118. 01:00:29.918                             : en:Chapter 13
  119. 01:07:55.321                             : en:Chapter 14
  120. 01:12:46.988                             : en:Chapter 15
  121. 01:14:56.617                             : en:Chapter 16
  122. 01:21:48.779                             : en:Chapter 17
  123. 01:26:20.300                             : en:Chapter 18
  124. 01:30:59.162                             : en:Chapter 19
  125. 01:38:58.057                             : en:Chapter 20




下载地址:

The.Edge.of.Seventeen.2016.1080p.BluRay.DDP7.1.x264-MOMOHD.torrent

BT9527电影天堂 1、BT9527电影天堂提供的BT文件均来源于互联网抓取,只供网友学习交流、技术提升使用。
2、我们遵守BitTorrent点对点协议原则,任何版权问题请联系原资源发布商,我们不处理任何版权纠纷,谢谢!如有争议请联系邮箱:BT9527#hotmail.com(#换成@)
3、如果您发现某页面或地址有错误,请联系站长邮箱BT9527#hotmail.com(#换成@),我们会尽快处理。您的热心是对BT9527电影天堂最大的支持。
4、本站建议去正规影院观看电影以支持电影行业发展。
最新回复 (0)

你可以在 登录 or 注册 后,对此帖发表评论!

返回
发新帖