江边旅馆[中文字幕].Hotel.by.the.River.2019.BluRay.1080p.DTS-HD.MA.5.1.x265.10bit-Xiaomi 7.28GB

版主小s 2月前 564

✔资源类型:暂未分类   ✔电影年份:2018   ✔电影地区:韩国   ✔电影分类:剧情

◎标  题 江边旅馆
◎译  名 Hotel by the River / Gangbyeon hotel
◎片  名 강변호텔
◎年  代 2018
◎产  地 韩国
◎类  别 剧情
◎语  言 韩语
◎上映日期 2018-08-09(洛迦诺电影节) / 2019-03-27(韩国)
◎IMDb评分 6.7/10 (1320人评价)
◎IMDb链接 https://www.imdb.com/title/tt8725958/
◎豆瓣评分 7.2/10 (9094人评价)
◎豆瓣链接 https://movie.douban.com/subject/30189817/
◎片  长 96分钟
◎导  演 洪常秀 Sang-soo Hong
◎编  剧 洪常秀 Sang-soo Hong
◎演  员 奇周峯 Joo-bong Ki
       金敏喜 Min-hee Kim
       宋宣美 Seon-mi Song
       权海骁 Hae-hyo Kwon
       刘俊相 Jun-sang Yu
       申锡镐 Shin Seok-Ho

◎标  签 韩国 / 文艺 / 2018 / 黑白 / 剧情 / 爱情 / 人生 / 洛迦诺电影节

◎简  介
    一位老诗人在河畔酒店里住了一段时间,想起了他两个久未联系的儿子。一个被同居男人背叛的年轻女人,也入住了这家酒店。为了寻求支持,她请了一位朋友来陪她。在这个江边旅馆里,人们只是相互凝视,生活于每个人来说都很艰难,这样的日子似乎每天都在不知疲倦地反复。
  1. ##### MediaInfo ######
  2. General
  3. Unique ID                                : 169394209910749726754920653249162296668 (0x7F70235C4F6E1C4325C1847BF0E8BD5C)
  4. Complete name                            : Hotel.by.the.River.2019.BluRay.1080p.DTS-HD.MA.5.1.x265.10bit-Xiaomi.mkv
  5. Format                                   : Matroska
  6. Format version                           : Version 4
  7. File size                                : 7.28 GiB
  8. Duration                                 : 1 h 35 min
  9. Overall bit rate mode                    : Variable
  10. Overall bit rate                         : 10.9 Mb/s
  11. Encoded date                             : UTC 2020-12-29 09:47:47
  12. Writing application                      : mkvmerge v51.0.0 ('I Wish') 64-bit
  13. Writing library                          : libebml v1.4.0 + libmatroska v1.6.2
  14. Video
  15. ID                                       : 1
  16. Format                                   : HEVC
  17. Format/Info                              : High Efficiency Video Coding
  18. Format profile                           : Main 10@L5.1@High
  19. Codec ID                                 : V_MPEGH/ISO/HEVC
  20. Duration                                 : 1 h 35 min
  21. Bit rate                                 : 8 003 kb/s
  22. Width                                    : 1 920 pixels
  23. Height                                   : 1 012 pixels
  24. Display aspect ratio                     : 1.897
  25. Frame rate mode                          : Constant
  26. Frame rate                               : 23.976 (24000/1001/53354) FPS
  27. Color space                              : YUV
  28. Chroma subsampling                       : 4:2:0
  29. Bit depth                                : 10 bits
  30. Bits/(Pixel*Frame)                       : 0.172
  31. Stream size                              : 5.34 GiB (73%)
  32. Writing library                          : x265 3.4+30-g6722fce1f:[Windows][GCC 10.2.0][64 bit] 10bit
  33. Encoding settings                        : cpuid=533541111039 / frame-threads=4 / numa-pools=16 / wpp / no-pmode / no-pme / no-psnr / no-ssim / log-level=2 / input-csp=1 / input-res=1920x1012 / interlace=0 / total-frames=137367 / level-idc=51 / high-tier=1 / uhd-bd=0 / ref=5 / no-allow-non-conformance / no-repeat-headers / annexb / no-aud / no-hrd / info / hash=0 / no-temporal-layers / no-open-gop / min-keyint=23 / keyint=250 / gop-lookahead=0 / bframes=12 / b-adapt=2 / b-pyramid / bframe-bias=0 / rc-lookahead=60 / lookahead-slices=0 / NTMzNTQ=uuDQuD2mJt9fsCf / scenecut=40 / hist-scenecut=0 / radl=0 / no-splice / no-intra-refresh / ctu=32 / min-cu-size=8 / rect / amp / max-tu-size=32 / tu-inter-depth=4 / tu-intra-depth=4 / limit-tu=0 / rdoq-level=2 / dynamic-rd=0.00 / no-ssim-rd / signhide / no-tskip / nr-intra=0 / nr-inter=0 / no-constrained-intra / no-strong-intra-smoothing / max-merge=5 / limit-refs=0 / no-limit-modes / me=3 / subme=4 / merange=48 / temporal-mvp / no-frame-dup / no-hme / weightp / weightb / no-analyze-src-pics / deblock=-1:-1 / no-sao / no-sao-non-deblock / rd=4 / selective-sao=0 / no-early-skip / rskip / no-fast-intra / no-tskip-fast / no-cu-lossless / b-intra / no-splitrd-skip / rdpenalty=1 / psy-rd=2.00 / psy-rdoq=5.00 / no-rd-refine / no-lossless / cbqpoffs=0 / crqpoffs=0 / rc=crf / crf=21.3 / qcomp=0.65 / qpstep=4 / stats-write=0 / stats-read=0 / vbv-maxrate=160000 / vbv-bufsize=160000 / vbv-init=0.9 / min-vbv-fullness=50.0 / max-vbv-fullness=80.0 / crf-max=0.0 / crf-min=0.0 / ipratio=1.40 / pbratio=1.20 / aq-mode=3 / aq-strength=0.90 / cutree / zone-count=0 / no-strict-cbr / qg-size=32 / no-rc-grain / qpmax=69 / qpmin=0 / no-const-vbv / sar=0 / overscan=0 / videoformat=5 / range=0 / colorprim=1 / transfer=1 / colormatrix=1 / chromaloc=0 / display-window=0 / cll=0,0 / min-luma=0 / max-luma=1023 / log2-max-poc-lsb=8 / vui-timing-info / vui-hrd-info / slices=1 / no-opt-qp-pps / no-opt-ref-list-length-pps / no-multi-pass-opt-rps / scenecut-bias=0.05 / hist-threshold=0.03 / no-opt-cu-delta-qp / no-aq-motion / no-hdr10 / no-hdr10-opt / no-dhdr10-opt / no-idr-recovery-sei / analysis-reuse-level=0 / analysis-save-reuse-level=0 / analysis-load-reuse-level=0 / scale-factor=0 / refine-intra=0 / refine-inter=0 / refine-mv=1 / refine-ctu-distortion=0 / no-limit-sao / ctu-info=0 / no-lowpass-dct / refine-analysis-type=0 / copy-pic=1 / max-ausize-factor=1.0 / no-dynamic-refine / no-single-sei / no-hevc-aq / no-svt / no-field / qp-adaptation-range=1.00 / no-scenecut-aware-qpconformance-window-offsets / right=0 / bottom=0 / NTMzNTQ= / decoder-max-rate=0 / no-vbv-live-multi-pass
  34. Default                                  : Yes
  35. Forced                                   : No
  36. Color range                              : Limited
  37. Color primaries                          : BT.709
  38. Transfer characteristics                 : BT.709
  39. Matrix coefficients                      : BT.709
  40. Audio
  41. ID                                       : 2
  42. Format                                   : DTS XLL
  43. Format/Info                              : Digital Theater Systems
  44. Commercial name                          : DTS-HD Master Audio
  45. Codec ID                                 : A_DTS
  46. Duration                                 : 1 h 35 min
  47. Bit rate mode                            : Variable
  48. Bit rate                                 : 2 869 kb/s
  49. Channel(s)                               : 6 channels
  50. Channel layout                           : C L R Ls Rs LFE
  51. Sampling rate                            : 48.0 kHz
  52. Frame rate                               : 93.750 FPS (512 SPF)
  53. Bit depth                                : 24 bits
  54. Compression mode                         : Lossless
  55. Stream size                              : 1.91 GiB (26%)
  56. Language                                 : Korean
  57. Default                                  : Yes
  58. Forced                                   : No
  59. Text #1
  60. ID                                       : 3
  61. Format                                   : PGS
  62. Muxing mode                              : zlib
  63. Codec ID                                 : S_HDMV/PGS
  64. Codec ID/Info                            : Picture based subtitle format used on BDs/HD-DVDs
  65. Duration                                 : 1 h 34 min
  66. Bit rate                                 : 19.9 kb/s
  67. Count of elements                        : 2200
  68. Stream size                              : 13.4 MiB (0%)
  69. Language                                 : Korean
  70. Default                                  : Yes
  71. Forced                                   : No
  72. Text #2
  73. ID                                       : 4
  74. Format                                   : PGS
  75. Muxing mode                              : zlib
  76. Codec ID                                 : S_HDMV/PGS
  77. Codec ID/Info                            : Picture based subtitle format used on BDs/HD-DVDs
  78. Duration                                 : 1 h 34 min
  79. Bit rate                                 : 20.8 kb/s
  80. Count of elements                        : 2067
  81. Stream size                              : 14.0 MiB (0%)
  82. Language                                 : Chinese
  83. Default                                  : No
  84. Forced                                   : No
  85. Text #3
  86. ID                                       : 5
  87. Format                                   : PGS
  88. Muxing mode                              : zlib
  89. Codec ID                                 : S_HDMV/PGS
  90. Codec ID/Info                            : Picture based subtitle format used on BDs/HD-DVDs
  91. Duration                                 : 1 h 34 min
  92. Bit rate                                 : 21.3 kb/s
  93. Count of elements                        : 2067
  94. Stream size                              : 14.4 MiB (0%)
  95. Language                                 : Chinese
  96. Default                                  : No
  97. Forced                                   : No
  98. Menu
  99. 00:00:00.000                             : ko:第 01 章
  100. 00:11:52.294                             : ko:第 02 章
  101. 00:26:22.831                             : ko:第 03 章
  102. 00:42:50.776                             : ko:第 04 章
  103. 01:04:25.945                             : ko:第 05 章
  104. 01:18:56.356                             : ko:第 06 章
  105. 01:34:46.597                             : ko:第 07 章




下载地址:

Hotel.by.the.River.2019.BluRay.1080p.DTS-HD.MA.5.1.x265.10bit-Xiaomi.torrent

BT9527电影天堂 1、BT9527电影天堂提供的BT文件均来源于互联网抓取,只供网友学习交流、技术提升使用。
2、我们遵守BitTorrent点对点协议原则,任何版权问题请联系原资源发布商,我们不处理任何版权纠纷,谢谢!如有争议请联系邮箱:BT9527#hotmail.com(#换成@)
3、如果您发现某页面或地址有错误,请联系站长邮箱BT9527#hotmail.com(#换成@),我们会尽快处理。您的热心是对BT9527电影天堂最大的支持。
4、本站建议去正规影院观看电影以支持电影行业发展。
最新回复 (0)

你可以在 登录 or 注册 后,对此帖发表评论!

返回
发新帖