蜂鸟[中文字幕].House.of.Hummingbird.2018.BluRay.1080p.DTS-HD.MA.5.1.x265.10bit-Xiaomi 7.46GB

版主小s 2月前 277

✔资源类型:暂未分类   ✔电影年份:2018   ✔电影地区:韩国   ✔电影分类:剧情

◎标  题 蜂鸟
◎译  名 我们与爱的距离(台) / House of Hummingbird / Beol-sae
◎片  名 벌새
◎年  代 2018
◎产  地 韩国
◎类  别 剧情
◎语  言 韩语
◎上映日期 2018-10-06(釜山电影节) / 2019-08-29(韩国)
◎IMDb评分 7.4/10 (2933人评价)
◎IMDb链接 https://www.imdb.com/title/tt8951086/
◎豆瓣评分 7.9/10 (32181人评价)
◎豆瓣链接 https://movie.douban.com/subject/30318230/
◎片  长 139分钟
◎导  演 金宝拉 Bora Kim
◎编  剧 金宝拉 Bora Kim
◎演  员 朴持厚 Ji-Hoo Park
       金玺碧 Sae-byuk Kim
       郑仁基 In-gi Jeong
       李胜妍 Seung-yeon Lee
       朴秀妍 Soo-yeon Park
       薛惠茵 Hye-in Seol
       朴书允 Seo-yoon Park
       孙相渊 Sang-yeon Son
       李钟允 Jong-yoon Lee
       金宝拉 Bora Kim

◎简  介
  圣水大桥坍塌的1994年,中学生恩熙和父母、姐姐、哥哥一起生活。全家在各自的问题上争吵,此时的恩熙寻觅未至的爱情,像岛一样漂浮。恩熙的生活里,唯一能给予理解的她出现了。
  1. ##### MediaInfo ######
  2. General
  3. Unique ID                                : 36228470951653543793410429123927694355 (0x1B4159863C30590AD52107F0D8535C13)
  4. Complete name                            : House.of.Hummingbird.2018.BluRay.1080p.DTS-HD.MA.5.1.x265.10bit-Xiaomi.mkv
  5. Format                                   : Matroska
  6. Format version                           : Version 4
  7. File size                                : 7.46 GiB
  8. Duration                                 : 2 h 19 min
  9. Overall bit rate mode                    : Variable
  10. Overall bit rate                         : 7 684 kb/s
  11. Encoded date                             : UTC 2020-08-09 08:57:54
  12. Writing application                      : mkvmerge v49.0.0 ('Sick Of Losing Soulmates') 64-bit
  13. Writing library                          : libebml v1.4.0 + libmatroska v1.6.1
  14. Video
  15. ID                                       : 1
  16. Format                                   : HEVC
  17. Format/Info                              : High Efficiency Video Coding
  18. Format profile                           : Main 10@L4.1@High
  19. Codec ID                                 : V_MPEGH/ISO/HEVC
  20. Duration                                 : 2 h 19 min
  21. Bit rate                                 : 5 332 kb/s
  22. Width                                    : 1 920 pixels
  23. Height                                   : 1 036 pixels
  24. Display aspect ratio                     : 1.85:1
  25. Frame rate mode                          : Constant
  26. Frame rate                               : 24.000 FPS
  27. Color space                              : YUV
  28. Chroma subsampling                       : 4:2:0
  29. Bit depth                                : 10 bits
  30. Bits/(Pixel*Frame)                       : 0.112
  31. Stream size                              : 5.18 GiB (69%)
  32. Writing library                          : x265 3.4+14-gd419c7152:[Windows][GCC 10.2.0][64 bit] 10bit
  33. Encoding settings                        : cpuid=533541111039 / frame-threads=5 / numa-pools=32 / wpp / pmode / pme / no-psnr / no-ssim / log-level=2 / input-csp=1 / input-res=1920x1036 / interlace=0 / total-frames=200167 / level-idc=41 / high-tier=1 / uhd-bd=0 / ref=5 / no-allow-non-conformance / repeat-headers / annexb / no-aud / no-hrd / info / hash=0 / no-temporal-layers / no-open-gop / min-keyint=24 / keyint=250 / gop-lookahead=0 / bframes=8 / b-adapt=2 / b-pyramid / bframe-bias=0 / rc-lookahead=60 / lookahead-slices=6 / NTMzNTQ=uuDQuD2mJt9fsCf / scenecut=40 / hist-scenecut=0 / radl=0 / no-splice / no-intra-refresh / ctu=32 / min-cu-size=8 / no-rect / no-amp / max-tu-size=32 / tu-inter-depth=1 / tu-intra-depth=1 / limit-tu=0 / rdoq-level=0 / dynamic-rd=0.00 / no-ssim-rd / signhide / no-tskip / nr-intra=0 / nr-inter=0 / no-constrained-intra / no-strong-intra-smoothing / max-merge=3 / limit-refs=1 / no-limit-modes / me=2 / subme=7 / merange=48 / temporal-mvp / no-frame-dup / no-hme / weightp / weightb / no-analyze-src-pics / deblock=0:0 / no-sao / no-sao-non-deblock / rd=4 / selective-sao=0 / early-skip / rskip / no-fast-intra / no-tskip-fast / no-cu-lossless / b-intra / no-splitrd-skip / rdpenalty=0 / psy-rd=2.00 / psy-rdoq=0.00 / no-rd-refine / no-lossless / cbqpoffs=0 / crqpoffs=0 / rc=crf / crf=15.0 / qcomp=0.60 / qpstep=4 / stats-write=0 / stats-read=0 / vbv-maxrate=50000 / vbv-bufsize=50000 / vbv-init=0.9 / crf-max=0.0 / crf-min=0.0 / ipratio=1.40 / pbratio=1.30 / aq-mode=1 / aq-strength=1.00 / cutree / zone-count=0 / no-strict-cbr / qg-size=32 / no-rc-grain / qpmax=69 / qpmin=0 / no-const-vbv / sar=0 / overscan=0 / videoformat=5 / range=0 / colorprim=2 / transfer=2 / colormatrix=2 / chromaloc=0 / display-window=0 / cll=0,0 / min-luma=0 / max-luma=1023 / log2-max-poc-lsb=8 / vui-timing-info / vui-hrd-info / slices=1 / no-opt-qp-pps / no-opt-ref-list-length-pps / no-multi-pass-opt-rps / scenecut-bias=0.05 / hist-threshold=0.03 / no-opt-cu-delta-qp / aq-motion / no-hdr10 / no-hdr10-opt / no-dhdr10-opt / no-idr-recovery-sei / analysis-reuse-level=0 / analysis-save-reuse-level=0 / analysis-load-reuse-level=0 / scale-factor=0 / refine-intra=0 / refine-inter=0 / refine-mv=1 / refine-ctu-distortion=0 / no-limit-sao / ctu-info=0 / no-lowpass-dct / refine-analysis-type=0 / copy-pic=1 / max-ausize-factor=1.0 / no-dynamic-refine / no-single-sei / no-hevc-aq / no-svt / no-field / qp-adaptation-range=1.00 / no-scenecut-aware-qpconformance-window-offsets / right=0 / bottom=0 / NTMzNTQ= / decoder-max-rate=0
  34. Default                                  : Yes
  35. Forced                                   : No
  36. Audio
  37. ID                                       : 2
  38. ID in the original source medium         : 4352 (0x1100)
  39. Format                                   : DTS XLL
  40. Format/Info                              : Digital Theater Systems
  41. Commercial name                          : DTS-HD Master Audio
  42. Codec ID                                 : A_DTS
  43. Duration                                 : 2 h 19 min
  44. Bit rate mode                            : Variable
  45. Bit rate                                 : 2 285 kb/s
  46. Channel(s)                               : 6 channels
  47. Channel layout                           : C L R Ls Rs LFE
  48. Sampling rate                            : 48.0 kHz
  49. Frame rate                               : 93.750 FPS (512 SPF)
  50. Bit depth                                : 16 bits
  51. Compression mode                         : Lossless
  52. Stream size                              : 2.22 GiB (30%)
  53. Language                                 : Korean
  54. Default                                  : Yes
  55. Forced                                   : No
  56. Original source medium                   : Blu-ray
  57. Text #1
  58. ID                                       : 3
  59. ID in the original source medium         : 4608 (0x1200)
  60. Format                                   : PGS
  61. Muxing mode                              : zlib
  62. Codec ID                                 : S_HDMV/PGS
  63. Codec ID/Info                            : Picture based subtitle format used on BDs/HD-DVDs
  64. Duration                                 : 2 h 14 min
  65. Bit rate                                 : 19.2 kb/s
  66. Count of elements                        : 2172
  67. Stream size                              : 18.4 MiB (0%)
  68. Language                                 : English
  69. Default                                  : Yes
  70. Forced                                   : No
  71. Original source medium                   : Blu-ray
  72. Text #2
  73. ID                                       : 4
  74. Format                                   : PGS
  75. Muxing mode                              : zlib
  76. Codec ID                                 : S_HDMV/PGS
  77. Codec ID/Info                            : Picture based subtitle format used on BDs/HD-DVDs
  78. Duration                                 : 2 h 14 min
  79. Bit rate                                 : 20.8 kb/s
  80. Count of elements                        : 2182
  81. Stream size                              : 20.1 MiB (0%)
  82. Language                                 : Chinese
  83. Default                                  : No
  84. Forced                                   : No
  85. Text #3
  86. ID                                       : 5
  87. Format                                   : PGS
  88. Muxing mode                              : zlib
  89. Codec ID                                 : S_HDMV/PGS
  90. Codec ID/Info                            : Picture based subtitle format used on BDs/HD-DVDs
  91. Duration                                 : 2 h 14 min
  92. Bit rate                                 : 20.6 kb/s
  93. Count of elements                        : 2182
  94. Stream size                              : 19.9 MiB (0%)
  95. Language                                 : Chinese
  96. Default                                  : No
  97. Forced                                   : No
  98. Text #4
  99. ID                                       : 6
  100. Format                                   : PGS
  101. Muxing mode                              : zlib
  102. Codec ID                                 : S_HDMV/PGS
  103. Codec ID/Info                            : Picture based subtitle format used on BDs/HD-DVDs
  104. Duration                                 : 2 h 14 min
  105. Bit rate                                 : 39.3 kb/s
  106. Count of elements                        : 2182
  107. Stream size                              : 38.0 MiB (0%)
  108. Language                                 : Chinese
  109. Default                                  : No
  110. Forced                                   : No
  111. Text #5
  112. ID                                       : 7
  113. Format                                   : PGS
  114. Muxing mode                              : zlib
  115. Codec ID                                 : S_HDMV/PGS
  116. Codec ID/Info                            : Picture based subtitle format used on BDs/HD-DVDs
  117. Duration                                 : 2 h 14 min
  118. Bit rate                                 : 39.1 kb/s
  119. Count of elements                        : 2182
  120. Stream size                              : 37.8 MiB (0%)
  121. Language                                 : Chinese
  122. Default                                  : No
  123. Forced                                   : No
  124. Menu
  125. 00:00:00.000                             : en:第 01 章
  126. 00:11:19.958                             : en:第 02 章
  127. 00:21:21.541                             : en:第 03 章
  128. 00:31:32.500                             : en:第 04 章
  129. 00:42:35.458                             : en:第 05 章
  130. 00:50:08.041                             : en:第 06 章
  131. 01:04:58.291                             : en:第 07 章
  132. 01:16:16.875                             : en:第 08 章
  133. 01:29:36.458                             : en:第 09 章
  134. 01:40:43.333                             : en:第 10 章
  135. 01:51:21.458                             : en:第 11 章
  136. 02:03:18.458                             : en:第 12 章
  137. 02:16:32.500                             : en:第 13 章




下载地址:

House.of.Hummingbird.2018.BluRay.1080p.DTS-HD.MA.5.1.x265.10bit-Xiaomi.torrent

BT9527电影天堂 1、BT9527电影天堂提供的BT文件均来源于互联网抓取,只供网友学习交流、技术提升使用。
2、我们遵守BitTorrent点对点协议原则,任何版权问题请联系原资源发布商,我们不处理任何版权纠纷,谢谢!如有争议请联系邮箱:BT9527#hotmail.com(#换成@)
3、如果您发现某页面或地址有错误,请联系站长邮箱BT9527#hotmail.com(#换成@),我们会尽快处理。您的热心是对BT9527电影天堂最大的支持。
4、本站建议去正规影院观看电影以支持电影行业发展。
最新回复 (0)

你可以在 登录 or 注册 后,对此帖发表评论!

返回
发新帖