魔女[中文字幕].Manyeo.2018.1080p.BluRay.DDP5.1.x264-MOMOHD 8.17GB

版主小s 2月前 363

✔资源类型:BD-1080P   ✔电影年份:2018   ✔电影地区:韩国   ✔电影分类:动作

◎标  题 魔女
◎译  名 魔女首部曲:诞生(台) / 魔女首部曲:毀坏(港) / The Witch : Part 1. The Subversion
◎片  名 마녀
◎年  代 2018
◎产  地 韩国
◎类  别 动作 / 悬疑
◎语  言 韩语
◎上映日期 2018-06-27(韩国)
◎IMDb评分 7.2/10 (8607人评价)
◎IMDb链接 https://www.imdb.com/title/tt8574252/
◎豆瓣评分 7.6/10 (98323人评价)
◎豆瓣链接 https://movie.douban.com/subject/26602900/
◎片  长 125分钟
◎导  演 朴勋政 Hoon-jung Park
◎编  剧 朴勋政 Hoon-jung Park
◎演  员 金多美 Da-mi Kim
       赵敏修 Min-su Jo
       朴熙顺 Hee soon Park
       崔宇植 Woo-Sik Choi
       高旻示 Min-si Go
       吴美姬 Mi-hee Oh
       崔政宇 Jung-woo Choi
       多恩 Daeun
       金秉玉 Byeong-ok Kim
       李柱元 Ju-won Lee
       金河娜 Ha-na Kim
       李基英 Ki-young Lee
       权泰元 Tae-won Kwon
       李时勋 Si-hoon Lee
       白承哲 Seung-chul Baek
       袁民奎 Woo Min-kyu
       金宗勋 Jong-hoon Kim
       徐翰洁 Han-gyeol Seo
       吕茂英 Moo-yeong Yeo
       朴向勋 Sang-hoon Park
       金道爀 Do-hyeok Kim
       高奉久 Bong-goo Go
        Jeong-goo Seo Jeong-goo Seo
       金孝珍 JeA
       Seung-yoon Han  Seung-yoon Han
       Hyeok-seong Kwon  Hyeok-seong Kwon
       Gwang-hee Jo Gwang-hee Jo
       金永 Kim Yoo
       崔贤钟 Hyeon-jong Choi
       申载敏 Jae-min Sin
       金基政 Gi-jeong Kim
       李夏英 Ha-yeong Lee
       李时宇 Si-woo Lee
       李圣贤 Mowg
       宋亨秀 Hyeong-soo Song
       郑雨琳 Woo-rim Jung
       金龙云 Yong-woon Kim
       玄奉植 Bong-shik Hyun
       白钟焕 Baek Jong-hwan
       郭振锡 Jin-seok Kwak

◎标  签 韩国 / 动作 / 暴力 / 血腥 / 科幻 / 悬疑 / 犯罪 / 人性

◎简  介
    该电影讲述了10年前在一起奇怪的事故中独自生还的失忆少女子允,在一对老夫妇的抚养下长大。为了贴补家用,子允参加了某档电视节目,但让她没想到的是,就在节目播出后,开始有各种奇怪的人出现在她面前……
  1. ##### MediaInfo ######
  2. General
  3. Unique ID                                : 281962299101198101584813555205809146090 (0xD41FF6A81D5D0CDEDADD599BB6AC88EA)
  4. Complete name                            : Manyeo.2018.1080p.BluRay.DDP5.1.x264-MOMOHD.mkv
  5. Format                                   : Matroska
  6. Format version                           : Version 4
  7. File size                                : 8.17 GiB
  8. Duration                                 : 2 h 5 min
  9. Overall bit rate                         : 9 286 kb/s
  10. Movie name                               : Manyeo 2018 1080p BluRay DDP5.1 x264-PTer
  11. Encoded date                             : UTC 2022-09-29 01:40:31
  12. Writing application                      : mkvmerge v43.0.0 ('The Quartermaster') 64-bit
  13. Writing library                          : libebml v1.3.10 + libmatroska v1.5.2
  14. Attachments                              : simkai.ttf
  15. Video
  16. ID                                       : 1
  17. Format                                   : AVC
  18. Format/Info                              : Advanced Video Codec
  19. Format profile                           : High@L4.1
  20. Format settings                          : CABAC / 5 Ref Frames
  21. Format settings, CABAC                   : Yes
  22. Format settings, Reference frames        : 5 frames
  23. Codec ID                                 : V_MPEG4/ISO/AVC
  24. Duration                                 : 2 h 5 min
  25. Bit rate                                 : 8 248 kb/s
  26. Width                                    : 1 920 pixels
  27. Height                                   : 804 pixels
  28. Display aspect ratio                     : 2.40:1
  29. Frame rate mode                          : Constant
  30. Frame rate                               : 23.976 (24000/1001/53354) FPS
  31. Color space                              : YUV
  32. Chroma subsampling                       : 4:2:0
  33. Bit depth                                : 8 bits
  34. Scan type                                : Progressive
  35. Bits/(Pixel*Frame)                       : 0.223
  36. Stream size                              : 7.26 GiB (89%)
  37. Title                                    : Korean
  38. Writing library                          : x264 core 164 r3094 bfc87b7
  39. Encoding settings                        : cabac=1 / ref=5 / deblock=1:-3:-3 / analyse=0x3:0x133 / me=umh / subme=11 / psy=1 / psy_rd=1.02:0.00 / mixed_ref=1 / me_range=32 / chroma_me=1 / trellis=2 / 8x8dct=1 / cqm=0 / deadzone=21,11 / fast_pskip=0 / chroma_qp_offset=-2 / threads=18 / lookahead_threads=4 / sliced_threads=0 / nr=0 / decimate=0 / interlaced=0 / NTMzNTQ= / bluray_compat=0 / constrained_intra=0 / bframes=16 / b_pyramid=2 / b_adapt=2 / b_bias=0 / direct=3 / weightb=1 / open_gop=0 / weightp=2 / keyint=250 / keyint_min=23 / NTMzNTQ=uuDQuD2mJt9fsCf / scenecut=40 / intra_refresh=0 / rc_lookahead=250 / rc=crf / mbtree=0 / crf=17.5 / qcomp=0.70 / qpmin=0 / qpmax=69 / qpstep=4 / vbv_maxrate=62500 / vbv_bufsize=78125 / crf_max=0.0 / nal_hrd=none / filler=0 / NTMzNTQ=LmsMAP37EqsCpk / ip_ratio=1.30 / pb_ratio=1.20 / aq=3:0.80 / zones=176655,181214,crf=22
  40. Language                                 : Korean
  41. Default                                  : Yes
  42. Forced                                   : No
  43. Color range                              : Limited
  44. Color primaries                          : BT.709
  45. Matrix coefficients                      : BT.709
  46. Audio
  47. ID                                       : 2
  48. Format                                   : E-AC-3
  49. Format/Info                              : Enhanced AC-3
  50. Commercial name                          : Dolby Digital Plus
  51. Codec ID                                 : A_EAC3
  52. Duration                                 : 2 h 5 min
  53. Bit rate mode                            : Constant
  54. Bit rate                                 : 1 024 kb/s
  55. Channel(s)                               : 6 channels
  56. Channel layout                           : L R C LFE Ls Rs
  57. Sampling rate                            : 48.0 kHz
  58. Frame rate                               : 31.250 FPS (1536 SPF)
  59. Compression mode                         : Lossy
  60. Stream size                              : 923 MiB (11%)
  61. Title                                    : Korean
  62. Language                                 : Korean
  63. Service kind                             : Complete Main
  64. Default                                  : Yes
  65. Forced                                   : No
  66. Text
  67. ID                                       : 3
  68. Format                                   : ASS
  69. Codec ID                                 : S_TEXT/ASS
  70. Codec ID/Info                            : Advanced Sub Station Alpha
  71. Duration                                 : 2 h 2 min
  72. Bit rate                                 : 81 b/s
  73. Count of elements                        : 1355
  74. Compression mode                         : Lossless
  75. Stream size                              : 72.9 KiB (0%)
  76. Title                                    : Chinese (Simplified)
  77. Language                                 : Chinese
  78. Default                                  : No
  79. Forced                                   : No
  80. Menu
  81. 00:00:00.000                             : en:Chapter 01
  82. 00:10:57.657                             : en:Chapter 02
  83. 00:20:49.665                             : en:Chapter 03
  84. 00:34:21.101                             : en:Chapter 04
  85. 00:44:38.342                             : en:Chapter 05
  86. 00:55:32.204                             : en:Chapter 06
  87. 01:09:03.389                             : en:Chapter 07
  88. 01:19:33.018                             : en:Chapter 08
  89. 01:31:30.485                             : en:Chapter 09
  90. 01:40:29.232                             : en:Chapter 10
  91. 01:52:38.210                             : en:Chapter 11
  92. 02:02:52.365                             : en:Chapter 12




下载地址:

Manyeo.2018.1080p.BluRay.DDP5.1.x264-MOMOHD.torrent

BT9527电影天堂 1、BT9527电影天堂提供的BT文件均来源于互联网抓取,只供网友学习交流、技术提升使用。
2、我们遵守BitTorrent点对点协议原则,任何版权问题请联系原资源发布商,我们不处理任何版权纠纷,谢谢!如有争议请联系邮箱:BT9527#hotmail.com(#换成@)
3、如果您发现某页面或地址有错误,请联系站长邮箱BT9527#hotmail.com(#换成@),我们会尽快处理。您的热心是对BT9527电影天堂最大的支持。
4、本站建议去正规影院观看电影以支持电影行业发展。
最新回复 (0)

你可以在 登录 or 注册 后,对此帖发表评论!

返回