爱实录[简繁英字幕].REC.2011.1080p.GL.WEB-DL.H264.AAC-TAGWEB 2.01GB

版主小s 2月前 1127

✔资源类型:WEB-1080P   ✔电影年份:2011   ✔电影地区:韩国   ✔电影分类:剧情

◎标  题 爱实录
◎译  名 REC [Al-i-ssi]
◎片  名 REC 알이씨
◎年  代 2011
◎产  地 韩国
◎类  别 剧情 / 爱情 / 同性
◎语  言 韩语
◎上映日期 2011-11-24
◎IMDb评分 5.6/10 (107人评价)
◎IMDb链接 https://www.imdb.com/title/tt2179602/
◎豆瓣评分 6.4/10 (863人评价)
◎豆瓣链接 https://movie.douban.com/subject/4928739/
◎片  长 65分钟
◎导  演 苏俊文 Joon-moon So
◎演  员 兆惠勋 Hye-hoon Jo
       宋三东 Sam-dong Song

◎简  介
  A gay couple record themselves on tape on their 5th anniversary. They re-confirm their love for each other. However, the day goes by and there is a strange feeling that this day will be the end of their love.
  1. ##### MediaInfo ######
  2. General
  3. Unique ID                                : 307312342185766589571385403751724625679 (0xE732344713780E28BC97F4000CD22F0F)
  4. Complete name                            : REC.2011.1080p.GL.WEB-DL.H264.AAC-TAGWEB.mkv
  5. Format                                   : Matroska
  6. Format version                           : Version 4
  7. File size                                : 2.01 GiB
  8. Duration                                 : 1 h 6 min
  9. Overall bit rate                         : 4 356 kb/s
  10. Encoded date                             : UTC 2022-03-25 03:48:30
  11. Writing application                      : mkvmerge v66.0.0 ('Josie') 64-bit
  12. Writing library                          : libebml v1.4.2 + libmatroska v1.6.4
  13. Video
  14. ID                                       : 1
  15. Format                                   : AVC
  16. Format/Info                              : Advanced Video Codec
  17. Format profile                           : High@L5
  18. Format settings                          : CABAC / 5 Ref Frames
  19. Format settings, CABAC                   : Yes
  20. Format settings, Reference frames        : 5 frames
  21. Codec ID                                 : V_MPEG4/ISO/AVC
  22. Duration                                 : 1 h 6 min
  23. Bit rate                                 : 4 228 kb/s
  24. Width                                    : 1 920 pixels
  25. Height                                   : 1 080 pixels
  26. Display aspect ratio                     : 16:9
  27. Frame rate mode                          : Constant
  28. Frame rate                               : 23.976 (23976/1000/53354) FPS
  29. Original frame rate                      : 23.976 (24000/1001/53354) FPS
  30. Color space                              : YUV
  31. Chroma subsampling                       : 4:2:0
  32. Bit depth                                : 8 bits
  33. Scan type                                : Progressive
  34. Bits/(Pixel*Frame)                       : 0.085
  35. Stream size                              : 1.95 GiB (97%)
  36. Default                                  : Yes
  37. Forced                                   : No
  38. Audio
  39. ID                                       : 2
  40. Format                                   : AAC LC
  41. Format/Info                              : Advanced Audio Codec Low Complexity
  42. Codec ID                                 : A_AAC-2
  43. Duration                                 : 1 h 6 min
  44. Bit rate                                 : 125 kb/s
  45. Channel(s)                               : 2 channels
  46. Channel layout                           : L R
  47. Sampling rate                            : 48.0 kHz
  48. Frame rate                               : 46.875 FPS (1024 SPF)
  49. Compression mode                         : Lossy
  50. Stream size                              : 59.2 MiB (3%)
  51. Default                                  : Yes
  52. Forced                                   : No
  53. Text #1
  54. ID                                       : 3
  55. Format                                   : UTF-8
  56. Codec ID                                 : S_TEXT/UTF8
  57. Codec ID/Info                            : UTF-8 Plain Text
  58. Duration                                 : 59 min 45 s
  59. Bit rate                                 : 26 b/s
  60. Count of elements                        : 529
  61. Stream size                              : 11.5 KiB (0%)
  62. Title                                    : Simplified Chinese
  63. Language                                 : Chinese
  64. Default                                  : Yes
  65. Forced                                   : No
  66. Text #2
  67. ID                                       : 4
  68. Format                                   : UTF-8
  69. Codec ID                                 : S_TEXT/UTF8
  70. Codec ID/Info                            : UTF-8 Plain Text
  71. Duration                                 : 59 min 45 s
  72. Bit rate                                 : 26 b/s
  73. Count of elements                        : 529
  74. Stream size                              : 11.5 KiB (0%)
  75. Title                                    : Traditional Chinese
  76. Language                                 : Chinese
  77. Default                                  : No
  78. Forced                                   : No
  79. Text #3
  80. ID                                       : 5
  81. Format                                   : UTF-8
  82. Codec ID                                 : S_TEXT/UTF8
  83. Codec ID/Info                            : UTF-8 Plain Text
  84. Duration                                 : 59 min 45 s
  85. Bit rate                                 : 27 b/s
  86. Count of elements                        : 529
  87. Stream size                              : 12.2 KiB (0%)
  88. Title                                    : English
  89. Language                                 : English
  90. Default                                  : No
  91. Forced                                   : No
  92. Text #4
  93. ID                                       : 6
  94. Format                                   : UTF-8
  95. Codec ID                                 : S_TEXT/UTF8
  96. Codec ID/Info                            : UTF-8 Plain Text
  97. Duration                                 : 59 min 45 s
  98. Bit rate                                 : 29 b/s
  99. Count of elements                        : 529
  100. Stream size                              : 12.9 KiB (0%)
  101. Title                                    : Indonesian
  102. Language                                 : Indonesian
  103. Default                                  : No
  104. Forced                                   : No
  105. Text #5
  106. ID                                       : 7
  107. Format                                   : UTF-8
  108. Codec ID                                 : S_TEXT/UTF8
  109. Codec ID/Info                            : UTF-8 Plain Text
  110. Duration                                 : 59 min 45 s
  111. Bit rate                                 : 79 b/s
  112. Count of elements                        : 529
  113. Stream size                              : 34.6 KiB (0%)
  114. Title                                    : Thai
  115. Language                                 : Thai
  116. Default                                  : No
  117. Forced                                   : No
  118. Text #6
  119. ID                                       : 8
  120. Format                                   : UTF-8
  121. Codec ID                                 : S_TEXT/UTF8
  122. Codec ID/Info                            : UTF-8 Plain Text
  123. Duration                                 : 59 min 45 s
  124. Bit rate                                 : 39 b/s
  125. Count of elements                        : 528
  126. Stream size                              : 17.4 KiB (0%)
  127. Title                                    : Japanese
  128. Language                                 : Japanese
  129. Default                                  : No
  130. Forced                                   : No




下载地址:

REC.2011.1080p.GL.WEB-DL.H264.AAC-TAGWEB.torrent

BT9527电影天堂 1、BT9527电影天堂提供的BT文件均来源于互联网抓取,只供网友学习交流、技术提升使用。
2、我们遵守BitTorrent点对点协议原则,任何版权问题请联系原资源发布商,我们不处理任何版权纠纷,谢谢!如有争议请联系邮箱:BT9527#hotmail.com(#换成@)
3、如果您发现某页面或地址有错误,请联系站长邮箱BT9527#hotmail.com(#换成@),我们会尽快处理。您的热心是对BT9527电影天堂最大的支持。
4、本站建议去正规影院观看电影以支持电影行业发展。
最新回复 (0)

你可以在 登录 or 注册 后,对此帖发表评论!

返回
发新帖