重新开始[中文字幕].Starting.Over.2014.1080p.GL.WEB-DL.H264.AAC-TAGWEB 2.80GB

版主小s 2月前 368

✔资源类型:WEB-1080P   ✔电影年份:2014   ✔电影地区:日本   ✔电影分类:爱情

◎标  题 重新开始
◎译  名 重新再来 / 爱的原点
◎片  名 Starting Over
◎年  代 2014
◎产  地 日本
◎类  别 爱情 / 同性
◎语  言 日语
◎IMDb评分 6.2/10 (30人评价)
◎IMDb链接 https://www.imdb.com/title/tt4132736/
◎豆瓣评分 6.7/10 (114人评价)
◎豆瓣链接 https://movie.douban.com/subject/26184070/
◎片  长 94分钟
◎演  员 户塚纯贵 Junki Tozuka
       涩川清彦 Kiyohiko Shibukawa
       渡边真起子 Makiko Watanabe
       远藤新菜 Nina Endô
       秋月三佳 Mika Akizuki

◎简  介
  影片讲述19岁的女孩黑泽奈々/娜娜(秋月三佳饰)生活在东京的一角,在这世上她只相信两个人,一个是她的亲生母亲,另一个则是她喜爱的同龄女孩Marin(远藤新菜饰)。在最渴望爱情的青春时光里,娜娜遇见了她们,然而残酷的世界却剥夺了她爱的权利。随着Marin生活的不断呈现,娜娜陷入了无尽的挣扎和痛苦中,并开始找寻爱情的真谛。
  1. ##### MediaInfo ######
  2. General
  3. Unique ID                                : 139853326063769503034619474243312717249 (0x6936C556596F2B149B75574CACD08DC1)
  4. Complete name                            : Starting.Over.2014.1080p.GL.WEB-DL.H264.AAC-TAGWEB.mkv
  5. Format                                   : Matroska
  6. Format version                           : Version 4
  7. File size                                : 2.80 GiB
  8. Duration                                 : 1 h 33 min
  9. Overall bit rate                         : 4 283 kb/s
  10. Encoded date                             : UTC 2022-03-25 03:55:56
  11. Writing application                      : mkvmerge v66.0.0 ('Josie') 64-bit
  12. Writing library                          : libebml v1.4.2 + libmatroska v1.6.4
  13. Video
  14. ID                                       : 1
  15. Format                                   : AVC
  16. Format/Info                              : Advanced Video Codec
  17. Format profile                           : High@L5
  18. Format settings                          : CABAC / 5 Ref Frames
  19. Format settings, CABAC                   : Yes
  20. Format settings, Reference frames        : 5 frames
  21. Codec ID                                 : V_MPEG4/ISO/AVC
  22. Duration                                 : 1 h 33 min
  23. Bit rate                                 : 4 155 kb/s
  24. Width                                    : 1 920 pixels
  25. Height                                   : 1 080 pixels
  26. Display aspect ratio                     : 16:9
  27. Frame rate mode                          : Constant
  28. Frame rate                               : 23.976 (24000/1001/53354) FPS
  29. Color space                              : YUV
  30. Chroma subsampling                       : 4:2:0
  31. Bit depth                                : 8 bits
  32. Scan type                                : Progressive
  33. Bits/(Pixel*Frame)                       : 0.084
  34. Stream size                              : 2.72 GiB (97%)
  35. Default                                  : Yes
  36. Forced                                   : No
  37. Audio
  38. ID                                       : 2
  39. Format                                   : AAC LC
  40. Format/Info                              : Advanced Audio Codec Low Complexity
  41. Codec ID                                 : A_AAC-2
  42. Duration                                 : 1 h 33 min
  43. Bit rate                                 : 125 kb/s
  44. Channel(s)                               : 2 channels
  45. Channel layout                           : L R
  46. Sampling rate                            : 48.0 kHz
  47. Frame rate                               : 46.875 FPS (1024 SPF)
  48. Compression mode                         : Lossy
  49. Stream size                              : 83.9 MiB (3%)
  50. Default                                  : Yes
  51. Forced                                   : No




下载地址:

Starting.Over.2014.1080p.GL.WEB-DL.H264.AAC-TAGWEB.torrent

BT9527电影天堂 1、BT9527电影天堂提供的BT文件均来源于互联网抓取,只供网友学习交流、技术提升使用。
2、我们遵守BitTorrent点对点协议原则,任何版权问题请联系原资源发布商,我们不处理任何版权纠纷,谢谢!如有争议请联系邮箱:BT9527#hotmail.com(#换成@)
3、如果您发现某页面或地址有错误,请联系站长邮箱BT9527#hotmail.com(#换成@),我们会尽快处理。您的热心是对BT9527电影天堂最大的支持。
4、本站建议去正规影院观看电影以支持电影行业发展。
最新回复 (0)

你可以在 登录 or 注册 后,对此帖发表评论!

返回