黑鸦前传[中文字幕].Blackcrow.0.2022.1080p.WEB-DL.x264.AAC-MOMOWEB 1.52GB

版主小s 2月前 544

✔资源类型:WEB-1080P   ✔电影年份:2022   ✔电影地区:日本   ✔电影分类:犯罪

◎标  题 黑鸦前传
◎片  名 クロガラス0
◎年  代 2022
◎产  地 日本
◎类  别 犯罪
◎语  言 日语
◎上映日期 2022-02-04(日本)
◎IMDb链接 https://www.imdb.com/title//
◎豆瓣链接 https://movie.douban.com/subject/35778539/
◎片  长 71分钟
◎演  员 崎山翼 Tsubasa Sakiyama
       植田圭辅 Keisuke Ueda
       菅田俊 Shun Sugata

◎简  介
  まだ解決屋「クロガラス」ができる前のお話―。黒斗が新人警察官として配属された街は、警察は金で買収され腐った組織と化していた。職務を真摯に全うする黒斗を同じ課の兵頭は弟分として可愛がり、二人は協力して街の秩序を正していく。そんなとき、次々と犯罪組織グループのアジトで強盗事件が発生。この事件の本当の黒幕は―?そして、なぜ黒斗は解決屋になったのか―?警察時代の黒斗の隠された過去、その全てが明かされる!
  1. ##### MediaInfo ######
  2. General
  3. Unique ID                                : 209801437541574395959513713252296045551 (0x9DD6497EF8B1491552BFF388460033EF)
  4. Complete name                            : 黑鸦事务所0.最初的信念.Blackcrow.0.2022.1080p.WEB-DL.x264.AAC-MOMOWEB.mp4
  5. Format                                   : Matroska
  6. Format version                           : Version 4
  7. File size                                : 1.52 GiB
  8. Duration                                 : 1 h 10 min
  9. Overall bit rate                         : 3 081 kb/s
  10. Encoded date                             : UTC 2022-05-08 10:21:40
  11. Writing application                      : mkvmerge v44.0.0 ('Domino') 64-bit
  12. Writing library                          : libebml v1.3.10 + libmatroska v1.5.2
  13. FileExtension_Invalid                    : mkv mk3d mka mks
  14. Video
  15. ID                                       : 1
  16. Format                                   : AVC
  17. Format/Info                              : Advanced Video Codec
  18. Format profile                           : High@L4.1
  19. Format settings                          : CABAC / 5 Ref Frames
  20. Format settings, CABAC                   : Yes
  21. Format settings, Reference frames        : 5 frames
  22. Codec ID                                 : V_MPEG4/ISO/AVC
  23. Duration                                 : 1 h 10 min
  24. Bit rate                                 : 3 000 kb/s
  25. Width                                    : 1 920 pixels
  26. Height                                   : 1 080 pixels
  27. Display aspect ratio                     : 16:9
  28. Frame rate mode                          : Constant
  29. Frame rate                               : 29.970 (29970/1000/53354) FPS
  30. Color space                              : YUV
  31. Chroma subsampling                       : 4:2:0
  32. Bit depth                                : 8 bits
  33. Scan type                                : Progressive
  34. Bits/(Pixel*Frame)                       : 0.048
  35. Stream size                              : 1.42 GiB (94%)
  36. Writing library                          : x264 core 142
  37. Encoding settings                        : cabac=1 / ref=5 / deblock=1:0:0 / analyse=0x3:0x113 / me=umh / subme=9 / psy=1 / psy_rd=1.00:0.00 / mixed_ref=1 / me_range=32 / chroma_me=1 / trellis=1 / 8x8dct=1 / cqm=0 / deadzone=21,11 / fast_pskip=1 / chroma_qp_offset=-2 / threads=6 / lookahead_threads=1 / sliced_threads=0 / nr=0 / decimate=1 / interlaced=0 / NTMzNTQ= / bluray_compat=0 / stitchable=1 / constrained_intra=0 / bframes=3 / b_pyramid=2 / b_adapt=1 / b_bias=0 / direct=3 / weightb=1 / open_gop=0 / weightp=2 / keyint=30 / keyint_min=3 / scenecut=0 / intra_refresh=0 / rc_lookahead=40 / rc=abr / mbtree=1 / bitrate=3000 / ratetol=1.0 / qcomp=0.60 / qpmin=0 / qpmax=69 / qpstep=4 / vbv_maxrate=4500 / vbv_bufsize=6750 / nal_hrd=none / filler=0 / NTMzNTQ=LmsMAP37EqsCpk / ip_ratio=1.40 / aq=1:1.00
  38. Default                                  : Yes
  39. Forced                                   : No
  40. Audio
  41. ID                                       : 2
  42. Format                                   : AAC LC
  43. Format/Info                              : Advanced Audio Codec Low Complexity
  44. Codec ID                                 : A_AAC-2
  45. Duration                                 : 1 h 10 min
  46. Bit rate                                 : 192 kb/s
  47. Channel(s)                               : 2 channels
  48. Channel layout                           : L R
  49. Sampling rate                            : 44.1 kHz
  50. Frame rate                               : 43.066 FPS (1024 SPF)
  51. Compression mode                         : Lossy
  52. Stream size                              : 96.8 MiB (6%)
  53. Title                                    : Japanese
  54. Language                                 : Japanese
  55. Default                                  : Yes
  56. Forced                                   : No




下载地址:

Blackcrow.0.2022.1080p.WEB-DL.x264.AAC-MOMOWEB.torrent

BT9527电影天堂 1、BT9527电影天堂提供的BT文件均来源于互联网抓取,只供网友学习交流、技术提升使用。
2、我们遵守BitTorrent点对点协议原则,任何版权问题请联系原资源发布商,我们不处理任何版权纠纷,谢谢!如有争议请联系邮箱:BT9527#hotmail.com(#换成@)
3、如果您发现某页面或地址有错误,请联系站长邮箱BT9527#hotmail.com(#换成@),我们会尽快处理。您的热心是对BT9527电影天堂最大的支持。
4、本站建议去正规影院观看电影以支持电影行业发展。
最新回复 (0)

你可以在 登录 or 注册 后,对此帖发表评论!

返回
发新帖