放射治疗室 电影版[简繁字幕].Radiation.House.The.Movie.2022.1080p.BluRay.x265.10bit.DTS-CTRLHD 5.46GB

版主小s 2月前 1043

✔资源类型:暂未分类   ✔电影年份:2022   ✔电影地区:日本   ✔电影分类:剧情

◎标  题 放射治疗室 电影版
◎译  名 X光室的奇迹 电影版
◎片  名 劇場版 ラジエーションハウス
◎年  代 2022
◎产  地 日本
◎语  言 日语
◎上映日期 2022-04-29(日本)
◎IMDb链接 https://www.imdb.com/title/tt17161628/
◎豆瓣链接 https://movie.douban.com/subject/35688864/
◎导  演 铃木雅之 Masayuki Suzuki
◎编  剧 大北遥 Haruka Okita
◎演  员 洼田正孝 Masataka Kubota
       本田翼 Tsubasa Honda
       广濑爱丽丝 Alice Hirose
       山口纱弥加 Sayaka Yamaguchi
       远藤宪一 Ken'ichi Endô
       滨野谦太 Kenta Hamano
       丸山智己 Tomomi Maruyama
       矢野圣人 Masato Yano
       八岛智人 Norito Yashima
       铃木伸之 Nobuyuki Suzuki
       高岛政宏 Masahiro Takashima
       浅野和之 Kazuyuki Asano
       和久井映见 Emi Wakui
       山崎育三郎 Ikusaburou Yamazaki
       若月佑美 Yumi Wakatsuki
       高桥克实 Katsumi Takahashi
       木村绿子 Midoriko Kimura
       原日出子 Hideko Hara

◎简  介
  劇場版では、“チームラジハ”の放射炯紟煠郡沥飞献畲螭卫щyに立ち向かうさまが描かれる。
  1. ##### MediaInfo ######
  2. General
  3. Unique ID                                : 245338974732541384086755859533139892787 (0xB892915B189B5C74B63FC27DE57D5A33)
  4. Complete name                            : Radiation.House.The.Movie.2022.1080p.BluRay.x265.10bit.DTS-CTRLHD.mkv
  5. Format                                   : Matroska
  6. Format version                           : Version 4
  7. File size                                : 5.46 GiB
  8. Duration                                 : 1 h 54 min
  9. Overall bit rate                         : 6 827 kb/s
  10. Movie name                               : Radiation House
  11. Encoded date                             : UTC 2022-09-24 05:04:51
  12. Writing application                      : mkvmerge v70.0.0 ('Caught A Lite Sneeze') 64-bit
  13. Writing library                          : libebml v1.4.2 + libmatroska v1.6.4
  14. Attachments                              : HYXiuYingF.ttf / 华康华综体.ttf
  15. Video
  16. ID                                       : 1
  17. Format                                   : HEVC
  18. Format/Info                              : High Efficiency Video Coding
  19. Format profile                           : Main 10@L4@Main
  20. Codec ID                                 : V_MPEGH/ISO/HEVC
  21. Duration                                 : 1 h 54 min
  22. Bit rate                                 : 5 305 kb/s
  23. Width                                    : 1 920 pixels
  24. Height                                   : 804 pixels
  25. Display aspect ratio                     : 2.40:1
  26. Frame rate mode                          : Constant
  27. Frame rate                               : 23.976 (24000/1001/53354) FPS
  28. Color space                              : YUV
  29. Chroma subsampling                       : 4:2:0
  30. Bit depth                                : 10 bits
  31. Bits/(Pixel*Frame)                       : 0.143
  32. Stream size                              : 4.24 GiB (78%)
  33. Title                                    : Jubowo @ WiKi
  34. Language                                 : Japanese
  35. Default                                  : Yes
  36. Forced                                   : No
  37. Audio
  38. ID                                       : 2
  39. Format                                   : DTS
  40. Format/Info                              : Digital Theater Systems
  41. Codec ID                                 : A_DTS
  42. Duration                                 : 1 h 54 min
  43. Bit rate mode                            : Constant
  44. Bit rate                                 : 1 509 kb/s
  45. Channel(s)                               : 6 channels
  46. Channel layout                           : C L R Ls Rs LFE
  47. Sampling rate                            : 48.0 kHz
  48. Frame rate                               : 93.750 FPS (512 SPF)
  49. Bit depth                                : 24 bits
  50. Compression mode                         : Lossy
  51. Stream size                              : 1.21 GiB (22%)
  52. Language                                 : Japanese
  53. Default                                  : Yes
  54. Forced                                   : No
  55. Text #1
  56. ID                                       : 3
  57. Format                                   : ASS
  58. Codec ID                                 : S_TEXT/ASS
  59. Codec ID/Info                            : Advanced Sub Station Alpha
  60. Duration                                 : 1 h 50 min
  61. Bit rate                                 : 108 b/s
  62. Count of elements                        : 1742
  63. Compression mode                         : Lossless
  64. Stream size                              : 87.2 KiB (0%)
  65. Title                                    : 繁體
  66. Language                                 : Chinese
  67. Default                                  : Yes
  68. Forced                                   : No
  69. Text #2
  70. ID                                       : 4
  71. Format                                   : ASS
  72. Codec ID                                 : S_TEXT/ASS
  73. Codec ID/Info                            : Advanced Sub Station Alpha
  74. Duration                                 : 1 h 50 min
  75. Bit rate                                 : 108 b/s
  76. Count of elements                        : 1742
  77. Compression mode                         : Lossless
  78. Stream size                              : 87.2 KiB (0%)
  79. Title                                    : 简体
  80. Language                                 : Chinese
  81. Default                                  : No
  82. Forced                                   : No
  83. Menu
  84. 00:00:00.000                             : en:Chapter 01
  85. 00:06:34.436                             : en:Chapter 02
  86. 00:11:35.570                             : en:Chapter 03
  87. 00:17:28.381                             : en:Chapter 04
  88. 00:22:06.825                             : en:Chapter 05
  89. 00:25:41.165                             : en:Chapter 06
  90. 00:30:28.452                             : en:Chapter 07
  91. 00:39:22.110                             : en:Chapter 08
  92. 00:51:27.418                             : en:Chapter 09
  93. 00:55:39.795                             : en:Chapter 10
  94. 01:05:16.496                             : en:Chapter 11
  95. 01:11:16.063                             : en:Chapter 12
  96. 01:15:24.687                             : en:Chapter 13
  97. 01:25:56.777                             : en:Chapter 14
  98. 01:30:28.757                             : en:Chapter 15
  99. 01:37:03.443                             : en:Chapter 16
  100. 01:44:26.385                             : en:Chapter 17
  101. 01:50:29.039                             : en:Chapter 18
  102. 01:54:30.363                             : en:Chapter 19




下载地址:

Radiation.House.The.Movie.2022.1080p.BluRay.x265.10bit.DTS-CTRLHD.torrent

BT9527电影天堂 1、BT9527电影天堂提供的BT文件均来源于互联网抓取,只供网友学习交流、技术提升使用。
2、我们遵守BitTorrent点对点协议原则,任何版权问题请联系原资源发布商,我们不处理任何版权纠纷,谢谢!如有争议请联系邮箱:BT9527#hotmail.com(#换成@)
3、如果您发现某页面或地址有错误,请联系站长邮箱BT9527#hotmail.com(#换成@),我们会尽快处理。您的热心是对BT9527电影天堂最大的支持。
4、本站建议去正规影院观看电影以支持电影行业发展。
最新回复 (0)

你可以在 登录 or 注册 后,对此帖发表评论!

返回