鸢[简繁字幕].Tonbi.2022.1080p.BluRay.x265.10bit.DTS-CTRLHD 6.56GB

版主小s 2月前 899

✔资源类型:暂未分类   ✔电影年份:2022   ✔电影地区:日本   ✔电影分类:剧情

◎标  题 鸢
◎片  名 とんび
◎年  代 2022
◎产  地 日本
◎类  别 剧情 / 家庭
◎语  言 日语
◎上映日期 2022-04-08(日本)
◎IMDb评分 6.1/10 (31人评价)
◎IMDb链接 https://www.imdb.com/title/tt19632774/
◎豆瓣评分 7.3/10 (206人评价)
◎豆瓣链接 https://movie.douban.com/subject/35344103/
◎片  长 139分钟
◎导  演 濑濑敬久 Takahisa Zeze
◎编  剧 港岳彦 Takehiko Minato
       重松清 Kiyoshi Shigematsu
◎演  员 阿部宽 Hiroshi Abe
       北村匠海 Takumi Kitamura
       杏 Anne
       安田显 Ken Yasuda
       大岛优子 Yuko Oshima
       滨田岳 Gaku Hamada
       宇梶刚士 Takashi Ukaji
       尾美利德 Toshinori Omi
       吉冈睦雄 Mutsuo Yoshioka
       宇野祥平 Shôhei Uno
       木龙麻生 Mai Kiryû
       田中哲司 Tetsushi Tanaka
       丰原功补 Kosuke Toyohara
       岛田久作 Kyûsaku Shimada
       村上淳 Jun Murakami
       磨赤儿 Akaji Maro
       麻生久美子 Kumiko Aso
       药师丸博子 Hiroko Yakushimaru
       白鸟晴都 Haruto Shiratori

◎简  介
  重松清的小说《鸢》将首次被改编成电影,小说曾经获得“大家所选选角川文库感动第1位”。影片将由濑濑敬久([天堂的故事])执导,阿部宽和北村匠海([念念手纪])在影片中扮演父子,故事讲述了在80年代的日本,市川安男是一个在货运公司工作的职员,他的妻子市川美佐子刚刚产下他们的儿子旭,然而一场意外,让美佐子失去了性命。安男与身边的人们为了保护旭,他们决定不告诉旭他母亲的这场意外,影片将于2022年日本公映。
  1. ##### MediaInfo ######
  2. General
  3. Unique ID                                : 5502726094877836166699307601395201028 (0x423C957D07094123D46DAE3BC3C3404)
  4. Complete name                            : Tonbi.2022.1080p.BluRay.x265.10bit.DTS-CTRLHD.mkv
  5. Format                                   : Matroska
  6. Format version                           : Version 4
  7. File size                                : 6.56 GiB
  8. Duration                                 : 2 h 19 min
  9. Overall bit rate                         : 6 744 kb/s
  10. Movie name                               : Tonbi
  11. Encoded date                             : UTC 2022-09-23 16:46:24
  12. Writing application                      : mkvmerge v70.0.0 ('Caught A Lite Sneeze') 64-bit
  13. Writing library                          : libebml v1.4.2 + libmatroska v1.6.4
  14. Attachments                              : FZZhunYuan-M02.ttf
  15. Video
  16. ID                                       : 1
  17. Format                                   : HEVC
  18. Format/Info                              : High Efficiency Video Coding
  19. Format profile                           : Main 10@L5@Main
  20. Codec ID                                 : V_MPEGH/ISO/HEVC
  21. Duration                                 : 2 h 19 min
  22. Bit rate                                 : 5 223 kb/s
  23. Width                                    : 1 920 pixels
  24. Height                                   : 1 036 pixels
  25. Display aspect ratio                     : 1.85:1
  26. Frame rate mode                          : Constant
  27. Frame rate                               : 23.976 (24000/1001/53354) FPS
  28. Color space                              : YUV
  29. Chroma subsampling                       : 4:2:0
  30. Bit depth                                : 10 bits
  31. Bits/(Pixel*Frame)                       : 0.110
  32. Stream size                              : 5.08 GiB (77%)
  33. Title                                    : Jubowo @ WiKi
  34. Language                                 : Japanese
  35. Default                                  : Yes
  36. Forced                                   : No
  37. Audio
  38. ID                                       : 2
  39. Format                                   : DTS
  40. Format/Info                              : Digital Theater Systems
  41. Codec ID                                 : A_DTS
  42. Duration                                 : 2 h 19 min
  43. Bit rate mode                            : Constant
  44. Bit rate                                 : 1 509 kb/s
  45. Channel(s)                               : 6 channels
  46. Channel layout                           : C L R Ls Rs LFE
  47. Sampling rate                            : 48.0 kHz
  48. Frame rate                               : 93.750 FPS (512 SPF)
  49. Bit depth                                : 24 bits
  50. Compression mode                         : Lossy
  51. Stream size                              : 1.47 GiB (22%)
  52. Language                                 : Japanese
  53. Default                                  : Yes
  54. Forced                                   : No
  55. Text #1
  56. ID                                       : 3
  57. Format                                   : ASS
  58. Codec ID                                 : S_TEXT/ASS
  59. Codec ID/Info                            : Advanced Sub Station Alpha
  60. Duration                                 : 2 h 15 min
  61. Bit rate                                 : 70 b/s
  62. Count of elements                        : 1454
  63. Compression mode                         : Lossless
  64. Stream size                              : 69.7 KiB (0%)
  65. Title                                    : 简体
  66. Language                                 : Chinese
  67. Default                                  : Yes
  68. Forced                                   : No
  69. Text #2
  70. ID                                       : 4
  71. Format                                   : ASS
  72. Codec ID                                 : S_TEXT/ASS
  73. Codec ID/Info                            : Advanced Sub Station Alpha
  74. Duration                                 : 2 h 15 min
  75. Bit rate                                 : 70 b/s
  76. Count of elements                        : 1454
  77. Compression mode                         : Lossless
  78. Stream size                              : 69.7 KiB (0%)
  79. Title                                    : 繁體
  80. Language                                 : Chinese
  81. Default                                  : Yes
  82. Forced                                   : No
  83. Menu
  84. 00:00:00.000                             : en:Chapter 01
  85. 00:08:47.527                             : en:Chapter 02
  86. 00:21:27.244                             : en:Chapter 03
  87. 00:29:32.729                             : en:Chapter 04
  88. 00:37:13.815                             : en:Chapter 05
  89. 00:51:03.352                             : en:Chapter 06
  90. 00:57:24.358                             : en:Chapter 07
  91. 01:02:29.162                             : en:Chapter 08
  92. 01:17:17.591                             : en:Chapter 09
  93. 01:29:25.652                             : en:Chapter 10
  94. 01:43:09.308                             : en:Chapter 11
  95. 01:48:54.403                             : en:Chapter 12
  96. 02:06:52.814                             : en:Chapter 13




下载地址:

Tonbi.2022.1080p.BluRay.x265.10bit.DTS-CTRLHD.torrent

BT9527电影天堂 1、BT9527电影天堂提供的BT文件均来源于互联网抓取,只供网友学习交流、技术提升使用。
2、我们遵守BitTorrent点对点协议原则,任何版权问题请联系原资源发布商,我们不处理任何版权纠纷,谢谢!如有争议请联系邮箱:BT9527#hotmail.com(#换成@)
3、如果您发现某页面或地址有错误,请联系站长邮箱BT9527#hotmail.com(#换成@),我们会尽快处理。您的热心是对BT9527电影天堂最大的支持。
4、本站建议去正规影院观看电影以支持电影行业发展。
最新回复 (1)

你可以在 登录 or 注册 后,对此帖发表评论!

返回
发新帖