神奇女侠[国英多音轨].Wonder.Woman.2017.BluRay.1080p.Atmos.TrueHD7.1.2Audio.x265.10bit-Xiaomi 11.37GB

版主小s 1月前 163

✔资源类型:暂未分类   ✔电影年份:2017   ✔电影地区:欧美   ✔电影分类:动作

◎标  题 神奇女侠
◎译  名 神力女超人(台)
◎片  名 Wonder Woman
◎年  代 2017
◎产  地 美国 / 中国大陆 / 中国香港
◎类  别 动作 / 奇幻 / 冒险
◎语  言 英语
◎上映日期 2017-06-02(中国大陆 / 美国) / 2017-05-30(中国香港 / 台湾)
◎IMDb评分 7.4/10 (617255人评价)
◎IMDb链接 https://www.imdb.com/title/tt0451279/
◎豆瓣评分 7.1/10 (434494人评价)
◎豆瓣链接 https://movie.douban.com/subject/1578714/
◎片  长 141分钟
◎导  演 派蒂·杰金斯 Patty Jenkins
◎编  剧 艾伦·海因伯格 Allan Heinberg
       扎克·施奈德 Zack Snyder
       贾森·福克斯 Jason Fuchs
       威廉·马斯顿 William M. Marston
◎演  员 盖尔·加朵 Gal Gadot
       克里斯·派恩 Chris Pine
       康妮·尼尔森 Connie Nielsen
       罗宾·怀特 Robin Wright
       大卫·休里斯 David Thewlis
       丹尼·赫斯顿 Danny Huston
       埃伦娜·安纳亚 Elena Anaya
       露茜·戴维斯 Lucy Davis
       萨伊德·塔格马奥 Saïd Taghmaoui
       艾文·布莱纳 Ewen Bremner
       尤金·布雷弗·洛克 Eugene Brave Rock
       莉莉·阿斯佩尔 Lilly Aspell
       艾米丽·凯里 Emily Carey
       丽莎·洛文·孔斯利 Lisa Loven Kongsli
       安·奥戈博莫 Ann Ogbomo
       弗洛伦丝·卡松巴 Florence Kasumba
       杜晨·科洛斯 Doutzen Kroes
       扎克·施奈德 Zack Snyder
       艾丽西娅·维拉-贝利 Alicia Vela-Bailey
       詹姆斯·科兹莫 James Cosmo
       萨曼莎·乔 Samantha Win
       赖纳·博克 Rainer Bock
       蕾切尔·皮卡普 Rachel Pickup
       芙洛·费拉科 Flor Ferraco
       沃尔夫·卡赫勒 Wolf Kahler
       布鲁克·恩斯 Brooke Ence
       彼得·斯塔克 Peter Stark
       萨米·海曼 Sammy Hayman
       马丁·贝肖普 Martin Bishop
       嘎娜·巴亚尔赛汗 Gana Bayarsaikhan
       弗莱迪·卡特 Freddy Carter
       安.沃夫 Ann Wolfe
       杰玛·摩尔 Jemma Moore

◎标  签 DC / 超级英雄 / 女神 / 美国 / 动作 / 科幻 / 漫画改编 / 2017

◎简  介
    戴安娜(盖尔·加朵 Gal Gadot 饰)是女王希波吕忒(康妮·尼尔森 Connie Nielsen 饰)的女儿,自幼生活在天堂岛上。巨大的屏障将这座岛屿同外界的纷纷扰扰隔开犹如一个世外桃源,而岛上生活着的亦都是女性。在女武官安提奥普(罗宾·莱特 Robin Wright 饰)的教导之下,戴安娜习得了高强的武艺,而她的体内,似乎隐藏着某种强大的未知力量。                                    
                                  一场意外中,一位名为史蒂夫(克里斯·派恩 Chris Pine 饰)的男子来到了岛上,从他口中,戴安娜得知外面的世界正在经历战争的磨难,而造成这一切的罪魁祸首,是战神阿瑞斯(大卫·休里斯 David Thewlis 饰)。为了拯救人类于水火之中,戴安娜依然拿起了长剑与盾牌,发誓要彻底摧毁阿瑞斯的阴谋。
  1. ##### MediaInfo ######
  2. General
  3. Unique ID                                : 241855945171358617366640344974719622726 (0xB5F3C2BD7493E5A1944E4445DE769E46)
  4. Complete name                            : Wonder.Woman.2017.BluRay.1080p.Atmos.TrueHD7.1.2Audio.x265.10bit-Xiaomi.mkv
  5. Format                                   : Matroska
  6. Format version                           : Version 4
  7. File size                                : 11.4 GiB
  8. Duration                                 : 2 h 21 min
  9. Overall bit rate mode                    : Variable
  10. Overall bit rate                         : 11.5 Mb/s
  11. Encoded date                             : UTC 2017-09-11 14:12:22
  12. Writing application                      : mkvmerge v15.0.0 ('Duel with the Devil') 64-bit
  13. Writing library                          : libebml v1.3.5 + libmatroska v1.4.5
  14. Video
  15. ID                                       : 1
  16. Format                                   : HEVC
  17. Format/Info                              : High Efficiency Video Coding
  18. Format profile                           : Main 10@L4@Main
  19. Codec ID                                 : V_MPEGH/ISO/HEVC
  20. Duration                                 : 2 h 21 min
  21. Bit rate                                 : 6 723 kb/s
  22. Width                                    : 1 920 pixels
  23. Height                                   : 800 pixels
  24. Display aspect ratio                     : 2.40:1
  25. Frame rate mode                          : Constant
  26. Frame rate                               : 23.976 (23976/1000/53354) FPS
  27. Color space                              : YUV
  28. Chroma subsampling                       : 4:2:0
  29. Bit depth                                : 10 bits
  30. Bits/(Pixel*Frame)                       : 0.183
  31. Stream size                              : 6.63 GiB (58%)
  32. Writing library                          : x265 2.5+9-fdf39a97ecb8:[Windows][MSVC 1800][64 bit] 10bit
  33. Encoding settings                        : cpuid=533541173503 / frame-threads=4 / numa-pools=16 / wpp / no-pmode / no-pme / no-psnr / no-ssim / log-level=2 / input-csp=1 / input-res=1920x800 / interlace=0 / total-frames=0 / level-idc=0 / high-tier=1 / uhd-bd=0 / ref=6 / no-allow-non-conformance / no-repeat-headers / annexb / no-aud / no-hrd / info / hash=0 / no-temporal-layers / no-open-gop / min-keyint=23 / keyint=250 / bframes=8 / b-adapt=2 / b-pyramid / bframe-bias=0 / rc-lookahead=48 / lookahead-slices=5 / NTMzNTQ=uuDQuD2mJt9fsCf / scenecut=40 / no-intra-refresh / ctu=64 / min-cu-size=8 / no-rect / no-amp / max-tu-size=32 / tu-inter-depth=1 / tu-intra-depth=1 / limit-tu=0 / rdoq-level=0 / dynamic-rd=0.00 / no-ssim-rd / signhide / no-tskip / nr-intra=0 / nr-inter=0 / no-constrained-intra / strong-intra-smoothing / max-merge=2 / limit-refs=3 / no-limit-modes / me=3 / subme=6 / merange=64 / temporal-mvp / weightp / weightb / no-analyze-src-pics / deblock=0:0 / sao / no-sao-non-deblock / rd=4 / no-early-skip / rskip / no-fast-intra / no-tskip-fast / no-cu-lossless / no-b-intra / rdpenalty=0 / psy-rd=2.00 / psy-rdoq=0.00 / no-rd-refine / analysis-reuse-mode=0 / no-lossless / cbqpoffs=0 / crqpoffs=0 / rc=crf / crf=18.0 / qcomp=0.60 / qpstep=4 / stats-write=0 / stats-read=0 / ipratio=1.40 / pbratio=1.30 / aq-mode=3 / aq-strength=1.00 / cutree / zone-count=0 / no-strict-cbr / qg-size=32 / no-rc-grain / qpmax=69 / qpmin=0 / no-const-vbv / sar=0 / overscan=0 / videoformat=5 / range=0 / colorprim=2 / transfer=2 / colormatrix=2 / chromaloc=0 / display-window=0 / max-cll=0,0 / min-luma=0 / max-luma=1023 / log2-max-poc-lsb=8 / vui-timing-info / vui-hrd-info / slices=1 / opt-qp-pps / opt-ref-list-length-pps / no-multi-pass-opt-rps / scenecut-bias=0.05 / no-opt-cu-delta-qp / aq-motion / no-hdr / no-hdr-opt / no-dhdr10-opt / analysis-reuse-level=5 / scale-factor=0 / refine-intra=0 / refine-inter=0 / refine-mv=0 / no-limit-sao / ctu-info=0
  34. Default                                  : Yes
  35. Forced                                   : No
  36. Audio #1
  37. ID                                       : 2
  38. Format                                   : MLP FBA 16-ch
  39. Format/Info                              : Meridian Lossless Packing FBA with 16-channel presentation
  40. Commercial name                          : Dolby TrueHD with Dolby Atmos
  41. Codec ID                                 : A_TRUEHD
  42. Duration                                 : 2 h 21 min
  43. Bit rate mode                            : Variable
  44. Bit rate                                 : 4 279 kb/s
  45. Maximum bit rate                         : 7 509 kb/s
  46. Channel(s)                               : 8 channels
  47. Channel layout                           : L R C LFE Ls Rs Lb Rb
  48. Sampling rate                            : 48.0 kHz
  49. Frame rate                               : 1 200.000 FPS (40 SPF)
  50. Compression mode                         : Lossless
  51. Stream size                              : 4.22 GiB (37%)
  52. Title                                    : English
  53. Default                                  : Yes
  54. Forced                                   : No
  55. Number of dynamic objects                : 11
  56. Bed channel count                        : 1 channel
  57. Bed channel configuration                : LFE
  58. Audio #2
  59. ID                                       : 3
  60. Format                                   : AC-3
  61. Format/Info                              : Audio Coding 3
  62. Commercial name                          : Dolby Digital
  63. Codec ID                                 : A_AC3
  64. Duration                                 : 2 h 21 min
  65. Bit rate mode                            : Constant
  66. Bit rate                                 : 448 kb/s
  67. Channel(s)                               : 3 channels
  68. Channel layout                           : L R LFE
  69. Sampling rate                            : 48.0 kHz
  70. Frame rate                               : 31.250 FPS (1536 SPF)
  71. Compression mode                         : Lossy
  72. Stream size                              : 453 MiB (4%)
  73. Title                                    : Mandarin
  74. Language                                 : Chinese
  75. Service kind                             : Complete Main
  76. Default                                  : No
  77. Forced                                   : No
  78. Menu
  79. 00:00:00.000                             : :Chapter 01
  80. 00:10:26.917                             : :Chapter 02
  81. 00:23:12.557                             : :Chapter 03
  82. 00:33:10.738                             : :Chapter 04
  83. 00:43:55.132                             : :Chapter 05
  84. 00:54:25.553                             : :Chapter 06
  85. 01:07:38.262                             : :Chapter 07
  86. 01:22:30.195                             : :Chapter 08
  87. 01:34:02.845                             : :Chapter 09
  88. 01:45:37.998                             : :Chapter 10
  89. 01:57:43.765                             : :Chapter 11
  90. 02:10:41.416                             : :Chapter 12
  91. 02:21:15.717                             : :Chapter 13




下载地址:

Wonder.Woman.2017.BluRay.1080p.Atmos.TrueHD7.1.2Audio.x265.10bit-Xiaomi.torrent

BT9527电影天堂 1、BT9527电影天堂提供的BT文件均来源于互联网抓取,只供网友学习交流、技术提升使用。
2、我们遵守BitTorrent点对点协议原则,任何版权问题请联系原资源发布商,我们不处理任何版权纠纷,谢谢!如有争议请联系邮箱:BT9527#hotmail.com(#换成@)
3、如果您发现某页面或地址有错误,请联系站长邮箱BT9527#hotmail.com(#换成@),我们会尽快处理。您的热心是对BT9527电影天堂最大的支持。
4、本站建议去正规影院观看电影以支持电影行业发展。
最新回复 (0)

你可以在 登录 or 注册 后,对此帖发表评论!

返回