银河守门员[中文字幕].Vratar.galaktiki.2020.BluRay.1080p.DTS-HDMA.5.1.x265.10bit-Xiaomi 9.28GB

版主小s 1月前 168

✔资源类型:暂未分类   ✔电影年份:2020   ✔电影地区:其他   ✔电影分类:动作

◎标  题 银河守门员
◎译  名 宇宙特攻队(台) / 宇宙世界杯 / Goalkeeper of the Galaxy / Cosmoball / Vratar galaktiki
◎片  名 Вратарь Галактики
◎年  代 2020
◎产  地 俄罗斯
◎类  别 动作 / 科幻 / 运动
◎语  言 俄语
◎上映日期 2020-08-27(俄罗斯)
◎IMDb评分 4.7/10 (2206人评价)
◎IMDb链接 https://www.imdb.com/title/tt7176054/
◎豆瓣评分 6.0/10 (1538人评价)
◎豆瓣链接 https://movie.douban.com/subject/30306050/
◎导  演 贾尼克·法伊济耶夫 Dzhanik Faiziyev
◎编  剧 贾尼克·法伊济耶夫 Dzhanik Faiziyev
       安德烈·鲁巴诺夫 Andrey Rubanov
◎演  员 维多利亚·阿加拉科娃 Viktoriya Agalakova
       沃尔夫冈·塞尔尼 Wolfgang Cerny
       瓦莱丽娅·德米特里耶娃 Valerya Dmitrieva
       米克哈尔·弗里蒙弗 Mikhail Efremov
       斯维特兰娜·伊万诺娃 Svetlana Ivanova
       玛尔塔·蒂莫菲娃 Marta Timofeeva
       尤里·库琴科 Yuriy Kutsenko
       叶甫盖尼·米罗诺夫 Yevgeny Mironov
       迪米特里·纳佐罗夫 Dmitriy Nazarov
       Konstantin Samoukov Konstantin Samoukov
       伊莲娜·雅科夫列娃 Elena Yakovleva
       mariya lisovaya mariya lisovaya
       叶夫根尼·罗曼佐夫 Evgeniy Romantsov

◎简  介
  2071。银河战争摧毁了月球,改变了地球的气候。莫斯科是热带森林,纽约是一片冰。在莫斯科上空升起一艘巨大的外星飞船-这是一个体育场,在那里进行了星际太空游戏的表演,联合体育和角斗士的战斗。整个银河系都在看比赛。只有运动员才能玩太空。这就是人们所说的那些具有非凡能力并能够管理这些能力的人。宇宙崇拜的一切,除了安东,最普通的人,谁只是梦想找到一份工作来帮助家庭。但有一天,他发现自己的超能力,并接受加入国家队。现在他是一个宇宙飞船的球员。安东还不知道这场比赛的命运决定了他的角色,最后的比赛将是一场为土地而战。
  1. ##### MediaInfo ######
  2. General
  3. Unique ID                                : 94930800474888847006983981165303639401 (0x476B01D322B7CE94E62EEED197512D69)
  4. Complete name                            : Vratar.galaktiki.2020.BluRay.1080p.DTS-HDMA.5.1.x265.10bit-Xiaomi.mkv
  5. Format                                   : Matroska
  6. Format version                           : Version 4
  7. File size                                : 9.28 GiB
  8. Duration                                 : 1 h 58 min
  9. Overall bit rate mode                    : Variable
  10. Overall bit rate                         : 11.2 Mb/s
  11. Encoded date                             : UTC 2021-02-09 07:49:56
  12. Writing application                      : mkvmerge v32.0.0 ('Astral Progressions') 64-bit
  13. Writing library                          : libebml v1.3.7 + libmatroska v1.5.0
  14. Video
  15. ID                                       : 1
  16. Format                                   : HEVC
  17. Format/Info                              : High Efficiency Video Coding
  18. Format profile                           : Main 10@L5.1@High
  19. Codec ID                                 : V_MPEGH/ISO/HEVC
  20. Duration                                 : 1 h 58 min
  21. Bit rate                                 : 7 157 kb/s
  22. Width                                    : 1 920 pixels
  23. Height                                   : 800 pixels
  24. Display aspect ratio                     : 2.40:1
  25. Frame rate mode                          : Constant
  26. Frame rate                               : 23.976 (23976/1000/53354) FPS
  27. Color space                              : YUV
  28. Chroma subsampling                       : 4:2:0
  29. Bit depth                                : 10 bits
  30. Bits/(Pixel*Frame)                       : 0.194
  31. Stream size                              : 5.91 GiB (64%)
  32. Writing library                          : x265 3.4+35-772bb4c84:[Windows][MSVC 1928][64 bit] 10bit
  33. Encoding settings                        : cpuid=533541111039 / frame-threads=4 / numa-pools=16 / wpp / no-pmode / no-pme / no-psnr / no-ssim / log-level=2 / input-csp=1 / input-res=1920x800 / interlace=0 / total-frames=0 / level-idc=51 / high-tier=1 / uhd-bd=0 / ref=6 / no-allow-non-conformance / repeat-headers / annexb / no-aud / no-hrd / info / hash=0 / no-temporal-layers / no-open-gop / min-keyint=23 / keyint=250 / gop-lookahead=0 / bframes=8 / b-adapt=2 / b-pyramid / bframe-bias=0 / rc-lookahead=24 / lookahead-slices=5 / NTMzNTQ=uuDQuD2mJt9fsCf / scenecut=40 / hist-scenecut=0 / radl=0 / no-splice / no-intra-refresh / ctu=64 / min-cu-size=8 / no-rect / no-amp / max-tu-size=32 / tu-inter-depth=1 / tu-intra-depth=1 / limit-tu=0 / rdoq-level=0 / dynamic-rd=0.00 / no-ssim-rd / signhide / no-tskip / nr-intra=0 / nr-inter=0 / no-constrained-intra / no-strong-intra-smoothing / max-merge=3 / limit-refs=1 / no-limit-modes / me=2 / subme=7 / merange=48 / temporal-mvp / no-frame-dup / no-hme / weightp / weightb / no-analyze-src-pics / deblock=0:0 / sao / no-sao-non-deblock / rd=4 / selective-sao=4 / early-skip / rskip / no-fast-intra / no-tskip-fast / no-cu-lossless / b-intra / no-splitrd-skip / rdpenalty=0 / psy-rd=2.00 / psy-rdoq=0.00 / no-rd-refine / no-lossless / cbqpoffs=0 / crqpoffs=0 / rc=crf / crf=18.0 / qcomp=0.60 / qpstep=4 / stats-write=0 / stats-read=0 / vbv-maxrate=160000 / vbv-bufsize=160000 / vbv-init=0.9 / min-vbv-fullness=50.0 / max-vbv-fullness=80.0 / crf-max=0.0 / crf-min=0.0 / ipratio=1.40 / pbratio=1.30 / aq-mode=3 / aq-strength=1.00 / cutree / zone-count=0 / no-strict-cbr / qg-size=32 / no-rc-grain / qpmax=69 / qpmin=0 / no-const-vbv / sar=0 / overscan=0 / videoformat=5 / range=0 / colorprim=2 / transfer=2 / colormatrix=2 / chromaloc=0 / display-window=0 / cll=0,0 / min-luma=0 / max-luma=1023 / log2-max-poc-lsb=8 / vui-timing-info / vui-hrd-info / slices=1 / no-opt-qp-pps / no-opt-ref-list-length-pps / no-multi-pass-opt-rps / scenecut-bias=0.05 / hist-threshold=0.03 / no-opt-cu-delta-qp / aq-motion / no-hdr10 / no-hdr10-opt / no-dhdr10-opt / no-idr-recovery-sei / analysis-reuse-level=0 / analysis-save-reuse-level=0 / analysis-load-reuse-level=0 / scale-factor=0 / refine-intra=0 / refine-inter=0 / refine-mv=1 / refine-ctu-distortion=0 / no-limit-sao / ctu-info=0 / no-lowpass-dct / refine-analysis-type=0 / copy-pic=1 / max-ausize-factor=1.0 / no-dynamic-refine / no-single-sei / no-hevc-aq / no-svt / no-field / qp-adaptation-range=1.00 / scenecut-aware-qp=0conformance-window-offsets / right=0 / bottom=0 / NTMzNTQ= / decoder-max-rate=0 / no-vbv-live-multi-pass
  34. Language                                 : Russian
  35. Default                                  : Yes
  36. Forced                                   : No
  37. Audio
  38. ID                                       : 2
  39. Format                                   : DTS XLL
  40. Format/Info                              : Digital Theater Systems
  41. Commercial name                          : DTS-HD Master Audio
  42. Codec ID                                 : A_DTS
  43. Duration                                 : 1 h 58 min
  44. Bit rate mode                            : Variable
  45. Bit rate                                 : 4 066 kb/s
  46. Channel(s)                               : 6 channels
  47. Channel layout                           : C L R Ls Rs LFE
  48. Sampling rate                            : 48.0 kHz
  49. Frame rate                               : 93.750 FPS (512 SPF)
  50. Bit depth                                : 24 bits
  51. Compression mode                         : Lossless
  52. Stream size                              : 3.36 GiB (36%)
  53. Language                                 : Russian
  54. Default                                  : Yes
  55. Forced                                   : No
  56. Text #1
  57. ID                                       : 3
  58. Format                                   : PGS
  59. Muxing mode                              : zlib
  60. Codec ID                                 : S_HDMV/PGS
  61. Codec ID/Info                            : Picture based subtitle format used on BDs/HD-DVDs
  62. Duration                                 : 1 h 55 min
  63. Bit rate                                 : 17.0 kb/s
  64. Count of elements                        : 2496
  65. Stream size                              : 14.0 MiB (0%)
  66. Language                                 : Chinese
  67. Default                                  : Yes
  68. Forced                                   : No
  69. Text #2
  70. ID                                       : 4
  71. Format                                   : PGS
  72. Muxing mode                              : zlib
  73. Codec ID                                 : S_HDMV/PGS
  74. Codec ID/Info                            : Picture based subtitle format used on BDs/HD-DVDs
  75. Duration                                 : 1 h 54 min
  76. Bit rate                                 : 17.3 kb/s
  77. Count of elements                        : 2494
  78. Stream size                              : 14.1 MiB (0%)
  79. Language                                 : Chinese
  80. Default                                  : No
  81. Forced                                   : No
  82. Menu
  83. 00:00:00.000                             : ru:Chapter 01
  84. 00:09:04.002                             : ru:Chapter 02
  85. 00:19:36.967                             : ru:Chapter 03
  86. 00:29:32.062                             : ru:Chapter 04
  87. 00:38:27.055                             : ru:Chapter 05
  88. 00:51:25.416                             : ru:Chapter 06
  89. 00:59:52.631                             : ru:Chapter 07
  90. 01:10:44.824                             : ru:Chapter 08
  91. 01:21:43.232                             : ru:Chapter 09
  92. 01:32:16.364                             : ru:Chapter 10
  93. 01:41:45.599                             : ru:Chapter 11
  94. 01:47:51.507                             : ru:Chapter 12




下载地址:

Vratar.galaktiki.2020.BluRay.1080p.DTS-HDMA.5.1.x265.10bit-Xiaomi.torrent

BT9527电影天堂 1、BT9527电影天堂提供的BT文件均来源于互联网抓取,只供网友学习交流、技术提升使用。
2、我们遵守BitTorrent点对点协议原则,任何版权问题请联系原资源发布商,我们不处理任何版权纠纷,谢谢!如有争议请联系邮箱:BT9527#hotmail.com(#换成@)
3、如果您发现某页面或地址有错误,请联系站长邮箱BT9527#hotmail.com(#换成@),我们会尽快处理。您的热心是对BT9527电影天堂最大的支持。
4、本站建议去正规影院观看电影以支持电影行业发展。
最新回复 (0)

你可以在 登录 or 注册 后,对此帖发表评论!

返回
发新帖