神奇女侠1984[中英字幕].Wonder.Woman.1984.2020.REPACK2.BluRay.1080p.TrueHD7.1.x265.10bit-Xiaomi 10.26GB

版主小s 1月前 205

✔资源类型:暂未分类   ✔电影年份:2020   ✔电影地区:欧美   ✔电影分类:动作

◎标  题 神奇女侠1984
◎译  名 神力女超人1984(台) / 神奇女侠2 / Wonder Woman 2 / WW84
◎片  名 Wonder Woman 1984
◎年  代 2020
◎产  地 美国 / 英国 / 西班牙
◎类  别 动作 / 奇幻 / 冒险
◎语  言 英语
◎上映日期 2020-12-18(中国大陆) / 2020-12-25(美国)
◎IMDb评分 5.4/10 (240725人评价)
◎IMDb链接 https://www.imdb.com/title/tt7126948/
◎豆瓣评分 6.1/10 (229844人评价)
◎豆瓣链接 https://movie.douban.com/subject/27073752/
◎片  长 151分钟
◎导  演 派蒂·杰金斯 Patty Jenkins
◎编  剧 派蒂·杰金斯 Patty Jenkins
       乔夫·琼斯 Geoff Johns
       戴夫·卡拉汉姆 Dave Callaham
       威廉·马斯顿 William M. Marston
◎演  员 盖尔·加朵 Gal Gadot
       克里斯·派恩 Chris Pine
       克里斯汀·韦格 Kristen Wiig
       佩德罗·帕斯卡 Pedro Pascal
       康妮·尼尔森 Connie Nielsen
       罗宾·怀特 Robin Wright
       莉莉·阿斯佩尔 Lilly Aspell
       加布瑞拉·王尔德 Gabriella Wilde
       杜晨·科洛斯 Doutzen Kroes
       琳达·卡特 Lynda Carter
       克里斯托弗·普拉哈 Kristoffer Polaha
       里昂·贝克维思 Lyon Beckwith
       拉维·帕特尔 Ravi Patel
       娜塔莎·罗斯韦尔 Natasha Rothwell
       泰莎·波纳姆·琼斯 Tessa Bonham Jones
       艾拉·沃克 Ella Walker
       游朝敏 Kelvin Yu
       谢恩·阿特沃尔 Shane Attwooll
       艾德·伯奇 Ed Birch
       帕特里克·利斯特 Patrick Lyster
       奥克莉·布尔 Oakley Bull
       科莎·恩格勒 Kosha Engler
       小田部阿基 Akie Kotabe
       康斯坦丁·格雷戈里 Constantine Gregory
       文森·德·保罗 Vincent De Paul
       朱利安·费罗 Julian Ferro
       罗莎娜·沃尔斯 Rosanna Walls
       丹尼·摩根 Danny Morgan
       克里斯·西尔科克 Chris Silcox
       伯纳多·桑托斯 Bernardo Santos
       菲利普·菲尔玛 Philip Philmar
       尼克·欧文福特 Nick Owenford
       乔尔·莫里斯 Joel Morris
       贾格·帕特尔 Jag Patel
       温迪·阿尔比斯顿 Wendy Albiston
       马诺伊·阿南德 Manoj Anand
       约翰·盖蒂尔 John Gettier
       佩内洛普·卡普迪雅 Penelope Kapudija
       莎拉·卢娜 Sarah Luna
       萨曼莎·罗素 Samantha Russell
       卢锡安·佩雷兹 Lucian Perez
       Pedro Leandro Pedro Leandro
       扎克·施奈德 Zack Snyder
       派蒂·杰金斯 Patty Jenkins
       韦斯利·柯勒 Wesley Coller
       汉斯·季默 Hans Zimmer
       马修·詹森 Matthew Jensen
        ASC
       林迪·海明 Lindy Hemming
       詹森·拉尼尔·布朗 Jason Lanier Brown
       Ben Collins Ben Collins

◎标  签 DC / 超级英雄 / 美国 / 科幻 / 动作 / 正义联盟 / 漫画改编 / 奇幻

◎简  介
  故事背景设定在五光十色、充满诱惑的80年代,神奇女侠戴安娜在华盛顿的自然历史博物馆过着与普通人无异的生活,然而在阻止了一场看似平常的劫案后,身边的一切都发生了变化。在强大的神力诱惑下,两位全新劲敌悄然出现——与神奇女侠“相爱相杀”的顶级掠食者豹女, 以及掌控着能改变世界力量的麦克斯·洛德,一场惊天大战在所难免。另外一边,旧爱史蒂夫突然“死而复生”,与戴安娜再续前缘,然而浪漫感动之余,史蒂夫的回归也疑窦丛生。                                    
                                新时代大幕开启,面对两位强大的邪恶反派和神秘归来的史蒂夫,神奇女侠要如何才能再次拯救世界?
  1. ##### MediaInfo ######
  2. General
  3. Unique ID                                : 309227829736599925543021979593499418786 (0xE8A31D1AF7FC12A9385DD836531320A2)
  4. Complete name                            : Wonder.Woman.1984.2020.REPACK2.BluRay.1080p.TrueHD7.1.x265.10bit-Xiaomi.mkv
  5. Format                                   : Matroska
  6. Format version                           : Version 4
  7. File size                                : 10.3 GiB
  8. Duration                                 : 2 h 31 min
  9. Overall bit rate mode                    : Variable
  10. Overall bit rate                         : 9 714 kb/s
  11. Encoded date                             : UTC 2021-03-12 16:17:14
  12. Writing application                      : mkvmerge v51.0.0 ('I Wish') 64-bit
  13. Writing library                          : libebml v1.4.0 + libmatroska v1.6.2
  14. Video
  15. ID                                       : 1
  16. Format                                   : HEVC
  17. Format/Info                              : High Efficiency Video Coding
  18. Format profile                           : Main 10@L5@Main
  19. Codec ID                                 : V_MPEGH/ISO/HEVC
  20. Duration                                 : 2 h 31 min
  21. Bit rate                                 : 6 175 kb/s
  22. Width                                    : 1 920 pixels
  23. Height                                   : 1 014 pixels
  24. Display aspect ratio                     : 1.893
  25. Frame rate mode                          : Constant
  26. Frame rate                               : 23.976 (24000/1001/53354) FPS
  27. Original frame rate                      : 23.976 (23976/1000/53354) FPS
  28. Color space                              : YUV
  29. Chroma subsampling                       : 4:2:0
  30. Bit depth                                : 10 bits
  31. Bits/(Pixel*Frame)                       : 0.132
  32. Stream size                              : 6.52 GiB (64%)
  33. Writing library                          : x265 3.4+26-ga82c6c7a7:[Windows][MSVC 1927][64 bit] 10bit
  34. Encoding settings                        : cpuid=533541111039 / frame-threads=5 / numa-pools=36,36 / wpp / no-pmode / no-pme / no-psnr / no-ssim / log-level=2 / input-csp=1 / input-res=1920x1014 / interlace=0 / total-frames=0 / level-idc=0 / high-tier=1 / uhd-bd=0 / ref=6 / no-allow-non-conformance / repeat-headers / annexb / no-aud / no-hrd / info / hash=0 / no-temporal-layers / no-open-gop / min-keyint=23 / keyint=250 / gop-lookahead=0 / bframes=8 / b-adapt=2 / b-pyramid / bframe-bias=0 / rc-lookahead=24 / lookahead-slices=6 / NTMzNTQ=uuDQuD2mJt9fsCf / scenecut=40 / hist-scenecut=0 / radl=0 / no-splice / no-intra-refresh / ctu=64 / min-cu-size=8 / no-rect / no-amp / max-tu-size=32 / tu-inter-depth=1 / tu-intra-depth=1 / limit-tu=0 / rdoq-level=0 / dynamic-rd=0.00 / no-ssim-rd / signhide / no-tskip / nr-intra=0 / nr-inter=0 / no-constrained-intra / no-strong-intra-smoothing / max-merge=3 / limit-refs=1 / no-limit-modes / me=2 / subme=7 / merange=48 / temporal-mvp / no-frame-dup / no-hme / weightp / weightb / no-analyze-src-pics / deblock=0:0 / sao / no-sao-non-deblock / rd=4 / selective-sao=4 / early-skip / rskip / no-fast-intra / no-tskip-fast / no-cu-lossless / b-intra / no-splitrd-skip / rdpenalty=0 / psy-rd=2.00 / psy-rdoq=0.00 / no-rd-refine / no-lossless / cbqpoffs=0 / crqpoffs=0 / rc=crf / crf=14.0 / qcomp=0.60 / qpstep=4 / stats-write=0 / stats-read=0 / ipratio=1.40 / pbratio=1.30 / aq-mode=3 / aq-strength=1.00 / cutree / zone-count=0 / no-strict-cbr / qg-size=32 / no-rc-grain / qpmax=69 / qpmin=0 / no-const-vbv / sar=0 / overscan=0 / videoformat=5 / range=0 / colorprim=2 / transfer=2 / colormatrix=2 / chromaloc=0 / display-window=0 / cll=0,0 / min-luma=0 / max-luma=1023 / log2-max-poc-lsb=8 / vui-timing-info / vui-hrd-info / slices=1 / no-opt-qp-pps / no-opt-ref-list-length-pps / no-multi-pass-opt-rps / scenecut-bias=0.05 / hist-threshold=0.03 / no-opt-cu-delta-qp / aq-motion / no-hdr10 / no-hdr10-opt / no-dhdr10-opt / no-idr-recovery-sei / analysis-reuse-level=0 / analysis-save-reuse-level=0 / analysis-load-reuse-level=0 / scale-factor=0 / refine-intra=0 / refine-inter=0 / refine-mv=1 / refine-ctu-distortion=0 / no-limit-sao / ctu-info=0 / no-lowpass-dct / refine-analysis-type=0 / copy-pic=1 / max-ausize-factor=1.0 / no-dynamic-refine / no-single-sei / hevc-aq / no-svt / no-field / qp-adaptation-range=1.00 / no-scenecut-aware-qpconformance-window-offsets / right=0 / bottom=0 / NTMzNTQ= / decoder-max-rate=0 / no-vbv-live-multi-pass
  35. Default                                  : Yes
  36. Forced                                   : No
  37. Audio #1
  38. ID                                       : 2
  39. Format                                   : MLP FBA 16-ch
  40. Format/Info                              : Meridian Lossless Packing FBA with 16-channel presentation
  41. Commercial name                          : Dolby TrueHD with Dolby Atmos
  42. Codec ID                                 : A_TRUEHD
  43. Duration                                 : 2 h 31 min
  44. Bit rate mode                            : Variable
  45. Bit rate                                 : 2 860 kb/s
  46. Maximum bit rate                         : 4 392 kb/s
  47. Channel(s)                               : 8 channels
  48. Channel layout                           : L R C LFE Ls Rs Lb Rb
  49. Sampling rate                            : 48.0 kHz
  50. Frame rate                               : 1 200.000 FPS (40 SPF)
  51. Compression mode                         : Lossless
  52. Stream size                              : 3.02 GiB (29%)
  53. Default                                  : Yes
  54. Forced                                   : No
  55. Number of dynamic objects                : 11
  56. Bed channel count                        : 1 channel
  57. Bed channel configuration                : LFE
  58. Audio #2
  59. ID                                       : 3
  60. Format                                   : AC-3
  61. Format/Info                              : Audio Coding 3
  62. Commercial name                          : Dolby Digital
  63. Codec ID                                 : A_AC3
  64. Duration                                 : 2 h 31 min
  65. Bit rate mode                            : Constant
  66. Bit rate                                 : 448 kb/s
  67. Channel(s)                               : 6 channels
  68. Channel layout                           : L R C LFE Ls Rs
  69. Sampling rate                            : 48.0 kHz
  70. Frame rate                               : 31.250 FPS (1536 SPF)
  71. Compression mode                         : Lossy
  72. Stream size                              : 484 MiB (5%)
  73. Service kind                             : Complete Main
  74. Default                                  : No
  75. Forced                                   : No
  76. Text #1
  77. ID                                       : 4
  78. Format                                   : PGS
  79. Muxing mode                              : zlib
  80. Codec ID                                 : S_HDMV/PGS
  81. Codec ID/Info                            : Picture based subtitle format used on BDs/HD-DVDs
  82. Duration                                 : 2 h 31 min
  83. Bit rate                                 : 61.1 kb/s
  84. Count of elements                        : 5443
  85. Stream size                              : 66.0 MiB (1%)
  86. Language                                 : Chinese
  87. Default                                  : Yes
  88. Forced                                   : No
  89. Text #2
  90. ID                                       : 5
  91. Format                                   : PGS
  92. Muxing mode                              : zlib
  93. Codec ID                                 : S_HDMV/PGS
  94. Codec ID/Info                            : Picture based subtitle format used on BDs/HD-DVDs
  95. Duration                                 : 2 h 31 min
  96. Bit rate                                 : 61.7 kb/s
  97. Count of elements                        : 5443
  98. Stream size                              : 66.7 MiB (1%)
  99. Language                                 : Chinese
  100. Default                                  : No
  101. Forced                                   : No
  102. Text #3
  103. ID                                       : 6
  104. Format                                   : PGS
  105. Muxing mode                              : zlib
  106. Codec ID                                 : S_HDMV/PGS
  107. Codec ID/Info                            : Picture based subtitle format used on BDs/HD-DVDs
  108. Duration                                 : 2 h 30 min
  109. Bit rate                                 : 74.4 kb/s
  110. Count of elements                        : 6008
  111. Stream size                              : 80.4 MiB (1%)
  112. Language                                 : Chinese
  113. Default                                  : No
  114. Forced                                   : No
  115. Text #4
  116. ID                                       : 7
  117. Format                                   : PGS
  118. Muxing mode                              : zlib
  119. Codec ID                                 : S_HDMV/PGS
  120. Codec ID/Info                            : Picture based subtitle format used on BDs/HD-DVDs
  121. Duration                                 : 2 h 30 min
  122. Bit rate                                 : 74.4 kb/s
  123. Count of elements                        : 6008
  124. Stream size                              : 80.4 MiB (1%)
  125. Language                                 : Chinese
  126. Default                                  : No
  127. Forced                                   : No
  128. Text #5
  129. ID                                       : 8
  130. Format                                   : PGS
  131. Muxing mode                              : zlib
  132. Codec ID                                 : S_HDMV/PGS
  133. Codec ID/Info                            : Picture based subtitle format used on BDs/HD-DVDs
  134. Duration                                 : 2 h 26 min
  135. Bit rate                                 : 34.0 kb/s
  136. Count of elements                        : 4360
  137. Stream size                              : 35.7 MiB (0%)
  138. Language                                 : English
  139. Default                                  : No
  140. Forced                                   : No
  141. Menu
  142. 00:00:00.000                             : en:绗?01 绔?
  143. 00:03:16.988                             : en:绗?02 绔?
  144. 00:11:18.303                             : en:绗?03 绔?
  145. 00:19:52.900                             : en:绗?04 绔?
  146. 00:29:11.041                             : en:绗?05 绔?
  147. 00:35:24.748                             : en:绗?06 绔?
  148. 00:41:06.798                             : en:绗?07 绔?
  149. 00:50:23.938                             : en:绗?08 绔?
  150. 00:57:08.467                             : en:绗?09 绔?
  151. 01:06:54.010                             : en:绗?10 绔?
  152. 01:16:48.813                             : en:绗?11 绔?
  153. 01:20:00.963                             : en:绗?12 绔?
  154. 01:28:58.208                             : en:绗?13 绔?
  155. 01:37:30.970                             : en:绗?14 绔?
  156. 01:46:59.955                             : en:绗?15 绔?
  157. 01:54:54.429                             : en:绗?16 绔?
  158. 02:00:30.932                             : en:绗?17 绔?
  159. 02:05:29.063                             : en:绗?18 绔?
  160. 02:11:21.665                             : en:绗?19 绔?
  161. 02:20:21.830                             : en:绗?20 绔?
  162. 02:25:35.435                             : en:绗?21 绔?




下载地址:

Wonder.Woman.1984.2020.REPACK2.BluRay.1080p.TrueHD7.1.x265.10bit-Xiaomi.torrent

BT9527电影天堂 1、BT9527电影天堂提供的BT文件均来源于互联网抓取,只供网友学习交流、技术提升使用。
2、我们遵守BitTorrent点对点协议原则,任何版权问题请联系原资源发布商,我们不处理任何版权纠纷,谢谢!如有争议请联系邮箱:BT9527#hotmail.com(#换成@)
3、如果您发现某页面或地址有错误,请联系站长邮箱BT9527#hotmail.com(#换成@),我们会尽快处理。您的热心是对BT9527电影天堂最大的支持。
4、本站建议去正规影院观看电影以支持电影行业发展。
最新回复 (0)

你可以在 登录 or 注册 后,对此帖发表评论!

返回