人之怒[中英字幕].Wrath.of.Man.2021.BluRay.1080p.DTS-HDMA5.1.x264-Xiaomi 19.38GB

版主小s 1月前 264

✔资源类型:BD-1080P   ✔电影年份:2021   ✔电影地区:欧美   ✔电影分类:动作

◎标  题 人之怒
◎译  名 玩命钞劫(台) / 运钞车 / Cash Truck
◎片  名 Wrath of Man
◎年  代 2021
◎产  地 美国 / 英国
◎类  别 动作 / 犯罪
◎语  言 英语
◎上映日期 2021-05-10(中国大陆) / 2021-04-22(俄罗斯) / 2021-05-07(美国)
◎IMDb评分 7.1/10 (130058人评价)
◎IMDb链接 https://www.imdb.com/title/tt11083552/
◎豆瓣评分 6.7/10 (131157人评价)
◎豆瓣链接 https://movie.douban.com/subject/27046740/
◎片  长 118分钟
◎导  演 盖·里奇 Guy Ritchie
◎编  剧 尼古拉斯·布赫里夫 Nicolas Boukhrief
       艾瑞克·贝斯纳 Éric Besnard
       盖·里奇 Guy Ritchie
       马恩·戴维斯 Marn Davies
       伊凡·阿特金森 Ivan Atkinson
◎演  员 杰森·斯坦森 Jason Statham
       霍特·麦克卡兰尼 Holt McCallany
       罗奇·威廉姆斯 Rocci Williams
       乔什·哈奈特 Josh Hartnett
       杰弗里·多诺万 Jeffrey Donovan
       斯科特·伊斯特伍德 Scott Eastwood
       安迪·加西亚 Andy Garcia
       道比·欧帕瑞 Deobia Oparei
       拉兹·阿隆索 Laz Alonso
       劳尔·卡斯提洛 Raúl Castillo
       克里斯·雷利 Chris Reilly
       埃迪·马森 Eddie Marsan
       尼芙·阿尔格 Niamh Algar
       塔格·墨菲 Tadhg Murphy
       马克·阿诺德 Mark Arnold
       杰拉尔德·泰勒 Gerald Tyler
       亚历克斯·费恩斯 Alex Ferns
       乔什·柯德雷 Josh Cowdery
       杰森·王 Jason Wong
       罗伯·德兰尼 Rob Delaney
       伊莱·布朗 Eli Brown
       凯瑞·莎勒 Kerry Shale
       卡梅伦·杰克 Cameron Jack
       达雷尔·席尔瓦 Darrell D'Silva
       巴布斯·奥卢桑莫昆 Babs Olusanmokun
       多米尼克·托马斯 Dominique Thomas
       琳·勒内 Lyne Renee
       蕾贝卡·卡尔德 Rebecca Calder
       伊芙·麦凯林 Eve Macklin
       詹姆斯·沃伦 James Warren
       波兹·马龙 Post Malone
       史蒂威·戴维斯 Stevee Davies
       蒙塔娜·曼宁 Montana Manning
       安东尼·莫利纳利 Anthony Molinari
       艾伦·斯图尔特 Alan Stewart
       斯蒂芬妮·科里  Stephanie Collie

◎标  签 犯罪 / 动作 / 美国 / 2021 / 剧情 / 悬疑 / 英国 / 黑色幽默

◎简  介
  在一次全副武装的运钞车劫案中,梅斯先生(杰森·斯坦森 饰)的儿子作为案发目击者被劫匪杀害。怒火中烧的梅斯为报丧子之仇,化身H卧底成为运钞车安保,试图找出杀害他儿子的劫匪以及与劫匪暗中勾结的安保公司内鬼。
  1. ##### MediaInfo ######
  2. General
  3. Unique ID                                : 184734244764220152399389614013267004996 (0x8AFA8578CCE4923B2E8B0ECB4C274E44)
  4. Complete name                            : Wrath.of.Man.2021.BluRay.1080p.DTS-HDMA5.1.x264-Xiaomi.mkv
  5. Format                                   : Matroska
  6. Format version                           : Version 4
  7. File size                                : 19.4 GiB
  8. Duration                                 : 1 h 58 min
  9. Overall bit rate mode                    : Variable
  10. Overall bit rate                         : 23.3 Mb/s
  11. Encoded date                             : UTC 2021-07-12 04:58:29
  12. Writing application                      : mkvmerge v58.0.0 ('Supper's Ready') 64-bit
  13. Writing library                          : libebml v1.4.2 + libmatroska v1.6.4
  14. Video
  15. ID                                       : 1
  16. Format                                   : AVC
  17. Format/Info                              : Advanced Video Codec
  18. Format profile                           : High@L4.1
  19. Format settings                          : CABAC / 4 Ref Frames
  20. Format settings, CABAC                   : Yes
  21. Format settings, Reference frames        : 4 frames
  22. Codec ID                                 : V_MPEG4/ISO/AVC
  23. Duration                                 : 1 h 58 min
  24. Bit rate                                 : 19.4 Mb/s
  25. Width                                    : 1 920 pixels
  26. Height                                   : 804 pixels
  27. Display aspect ratio                     : 2.40:1
  28. Frame rate mode                          : Constant
  29. Frame rate                               : 23.976 (24000/1001/53354) FPS
  30. Color space                              : YUV
  31. Chroma subsampling                       : 4:2:0
  32. Bit depth                                : 8 bits
  33. Scan type                                : Progressive
  34. Bits/(Pixel*Frame)                       : 0.525
  35. Stream size                              : 16.1 GiB (83%)
  36. Writing library                          : x264 core 157 r2867+150 7e91e0e t_mod_Custom_2 [8-bit@all X86_64]
  37. Encoding settings                        : cabac=1 / ref=4 / deblock=1:-3:-3 / analyse=0x3:0x133 / me=umh / subme=11 / psy=1 / fade_compensate=0.00 / psy_rd=0.95:0.10 / mixed_ref=1 / me_range=48 / chroma_me=1 / trellis=2 / 8x8dct=1 / cqm=0 / deadzone=21,11 / fast_pskip=0 / chroma_qp_offset=-4 / threads=25 / lookahead_threads=6 / sliced_threads=0 / nr=0 / decimate=1 / interlaced=0 / NTMzNTQ= / bluray_compat=0 / constrained_intra=0 / fgo=0 / bframes=16 / b_pyramid=2 / b_adapt=2 / b_bias=0 / direct=3 / weightb=1 / open_gop=0 / weightp=2 / keyint=250 / keyint_min=23 / NTMzNTQ=uuDQuD2mJt9fsCf / scenecut=40 / intra_refresh=0 / rc_lookahead=60 / rc=crf / mbtree=0 / crf=18.0000 / qcomp=0.70 / qpmin=0:0:0 / qpmax=69:69:69 / qpstep=4 / vbv_maxrate=35000 / vbv_bufsize=35000 / crf_max=0.0 / nal_hrd=none / filler=0 / NTMzNTQ=LmsMAP37EqsCpk / ip_ratio=1.40 / pb_ratio=1.30 / aq=3:1.00 / aq-sensitivity=10.00 / aq-factor=1.00:1.00:1.00 / aq2=0 / aq3=2:[0.50:0.50]:[0.50:0.50]:[0.50:0.50]:[0.50:0.50] / aq3-sensitivity=10.00 / aq3-factor=[1.00:1.00]:[1.00:1.00]:[1.00:1.00] / aq3-boundary=192:64:24
  38. Language                                 : English
  39. Default                                  : Yes
  40. Forced                                   : No
  41. Audio
  42. ID                                       : 2
  43. Format                                   : DTS XLL
  44. Format/Info                              : Digital Theater Systems
  45. Commercial name                          : DTS-HD Master Audio
  46. Codec ID                                 : A_DTS
  47. Duration                                 : 1 h 58 min
  48. Bit rate mode                            : Variable
  49. Bit rate                                 : 3 673 kb/s
  50. Channel(s)                               : 6 channels
  51. Channel layout                           : C L R Ls Rs LFE
  52. Sampling rate                            : 48.0 kHz
  53. Frame rate                               : 93.750 FPS (512 SPF)
  54. Bit depth                                : 24 bits
  55. Compression mode                         : Lossless
  56. Stream size                              : 3.05 GiB (16%)
  57. Language                                 : English
  58. Default                                  : Yes
  59. Forced                                   : No
  60. Text #1
  61. ID                                       : 3
  62. Format                                   : PGS
  63. Muxing mode                              : zlib
  64. Codec ID                                 : S_HDMV/PGS
  65. Codec ID/Info                            : Picture based subtitle format used on BDs/HD-DVDs
  66. Duration                                 : 1 h 51 min
  67. Bit rate                                 : 81.4 kb/s
  68. Count of elements                        : 6558
  69. Stream size                              : 65.0 MiB (0%)
  70. Language                                 : Chinese
  71. Default                                  : Yes
  72. Forced                                   : No
  73. Text #2
  74. ID                                       : 4
  75. Format                                   : PGS
  76. Muxing mode                              : zlib
  77. Codec ID                                 : S_HDMV/PGS
  78. Codec ID/Info                            : Picture based subtitle format used on BDs/HD-DVDs
  79. Duration                                 : 1 h 51 min
  80. Bit rate                                 : 82.4 kb/s
  81. Count of elements                        : 6558
  82. Stream size                              : 65.8 MiB (0%)
  83. Language                                 : Chinese
  84. Default                                  : Yes
  85. Forced                                   : No
  86. Text #3
  87. ID                                       : 5
  88. Format                                   : PGS
  89. Muxing mode                              : zlib
  90. Codec ID                                 : S_HDMV/PGS
  91. Codec ID/Info                            : Picture based subtitle format used on BDs/HD-DVDs
  92. Duration                                 : 1 h 51 min
  93. Bit rate                                 : 110 kb/s
  94. Count of elements                        : 6558
  95. Stream size                              : 87.9 MiB (0%)
  96. Language                                 : Chinese
  97. Default                                  : Yes
  98. Forced                                   : No
  99. Text #4
  100. ID                                       : 6
  101. Format                                   : PGS
  102. Muxing mode                              : zlib
  103. Codec ID                                 : S_HDMV/PGS
  104. Codec ID/Info                            : Picture based subtitle format used on BDs/HD-DVDs
  105. Duration                                 : 1 h 51 min
  106. Bit rate                                 : 111 kb/s
  107. Count of elements                        : 6558
  108. Stream size                              : 88.7 MiB (0%)
  109. Language                                 : Chinese
  110. Default                                  : Yes
  111. Forced                                   : No
  112. Text #5
  113. ID                                       : 7
  114. Format                                   : PGS
  115. Muxing mode                              : zlib
  116. Codec ID                                 : S_HDMV/PGS
  117. Codec ID/Info                            : Picture based subtitle format used on BDs/HD-DVDs
  118. Duration                                 : 1 h 51 min
  119. Bit rate                                 : 36.2 kb/s
  120. Count of elements                        : 3020
  121. Stream size                              : 28.8 MiB (0%)
  122. Language                                 : English
  123. Default                                  : Yes
  124. Forced                                   : No
  125. Menu
  126. 00:00:00.000                             : :绗?01 绔?
  127. 00:05:55.188                             : :绗?02 绔?
  128. 00:13:08.121                             : :绗?03 绔?
  129. 00:19:51.524                             : :绗?04 绔?
  130. 00:29:30.435                             : :绗?05 绔?
  131. 00:38:33.228                             : :绗?06 绔?
  132. 00:47:33.684                             : :绗?07 绔?
  133. 00:55:34.998                             : :绗?08 绔?
  134. 01:02:41.299                             : :绗?09 绔?
  135. 01:10:36.107                             : :绗?10 绔?
  136. 01:19:03.530                             : :绗?11 绔?
  137. 01:25:57.819                             : :绗?12 绔?
  138. 01:34:15.358                             : :绗?13 绔?
  139. 01:44:04.989                             : :绗?14 绔?
  140. 01:53:03.986                             : :绗?15 绔?




下载地址:

Wrath.of.Man.2021.BluRay.1080p.DTS-HDMA5.1.x264-Xiaomi.torrent

BT9527电影天堂 1、BT9527电影天堂提供的BT文件均来源于互联网抓取,只供网友学习交流、技术提升使用。
2、我们遵守BitTorrent点对点协议原则,任何版权问题请联系原资源发布商,我们不处理任何版权纠纷,谢谢!如有争议请联系邮箱:BT9527#hotmail.com(#换成@)
3、如果您发现某页面或地址有错误,请联系站长邮箱BT9527#hotmail.com(#换成@),我们会尽快处理。您的热心是对BT9527电影天堂最大的支持。
4、本站建议去正规影院观看电影以支持电影行业发展。
最新回复 (0)

你可以在 登录 or 注册 后,对此帖发表评论!

返回
发新帖