我是谁:没有绝对安全的系统[简繁英字幕].Who.Am.I.2014.GER.BluRay.1080p.DTS-HD.MA5.1.x265.10bit-Xiaomi 7.81GB

版主小s 1月前 241

✔资源类型:暂未分类   ✔电影年份:2014   ✔电影地区:其他   ✔电影分类:悬疑

◎标  题 我是谁:没有绝对安全的系统
◎译  名 黑客搏击会(港) / Who Am I - No System Is Safe / WhoAmI
◎片  名 Who Am I - Kein System ist sicher
◎年  代 2014
◎产  地 德国
◎类  别 悬疑 / 惊悚 / 犯罪
◎语  言 德语 / 英语
◎上映日期 2014-09-25(德国)
◎IMDb评分 7.5/10 (54154人评价)
◎IMDb链接 https://www.imdb.com/title/tt3042408/
◎豆瓣评分 8.2/10 (195448人评价)
◎豆瓣链接 https://movie.douban.com/subject/25932086/
◎片  长 102分钟
◎导  演 巴伦·博·欧达尔 Baran bo Odar
◎编  剧 巴伦·博·欧达尔 Baran bo Odar
       扬特耶·弗里泽 Jantje Friese
◎演  员 汤姆·希林 Tom Schilling
       埃利亚斯·穆巴里克 Elyas M'Barek
       沃坦·维尔克·默林 Wotan Wilke Möhring
       汉娜·赫茨施普龙 Hannah Herzsprung
       崔娜·蒂虹 Trine Dyrholm
       李奥那多·卡劳 Leonhard Carow
       小安托万·莫诺特 Antoine Monot Jr.
       利奥波德·霍尔农 Leopold Hornung
       卡塔琳娜·马茨 Katharina Matz
       阿尔恩特·施韦林·索瑞 Arndt Schwering-Sohnrey

◎标  签 悬疑 / 黑客 / 犯罪 / 德国 / 剧情 / 心理 / 德国电影 / 惊悚

◎简  介
  本杰明是一个这样的人:三次元现实世界中,他是一个十足的屌丝&Loser,难以找到存在感,没有时尚感、没有朋友,也没有女朋友。但是二十五岁的他却是一个的电脑极客,拥有对数字技术不可思议的天赋。而影片中另一位主人公马克思是一个渴望“黑客世界”的潜在革命者,他注意到了本杰明在 网络方面的惊人才华,马克思、本杰明和神童斯蒂芬以及保罗私人组建了黑客组织CLAY,并且为了正义入侵国际安全系统。他们凭借高超黑客技术的所为引起了德国秘密警察组织、欧洲刑警组织的重视,并且一个邪恶的黑客将他们视作威胁,想要将他们除去。本杰明因此感觉到自己正在面临生死攸关的考验,并且他们的目标似乎不值得他付出如此大的代价……
  1. ##### MediaInfo ######
  2. General
  3. Unique ID                                : 160005167924018573834834587677498041283 (0x785FDFD9BCBFBD48907CDFC9351863C3)
  4. Complete name                            : Who.Am.I.2014.GER.BluRay.1080p.DTS-HD.MA5.1.x265.10bit-Xiaomi.mkv
  5. Format                                   : Matroska
  6. Format version                           : Version 4
  7. File size                                : 7.81 GiB
  8. Duration                                 : 1 h 41 min
  9. Overall bit rate mode                    : Variable
  10. Overall bit rate                         : 11.0 Mb/s
  11. Encoded date                             : UTC 2019-12-12 11:06:08
  12. Writing application                      : mkvmerge v41.0.0 ('Smarra') 64-bit
  13. Writing library                          : libebml v1.3.9 + libmatroska v1.5.2
  14. Video
  15. ID                                       : 1
  16. Format                                   : HEVC
  17. Format/Info                              : High Efficiency Video Coding
  18. Format profile                           : Main 10@L4@Main
  19. Codec ID                                 : V_MPEGH/ISO/HEVC
  20. Duration                                 : 1 h 41 min
  21. Bit rate                                 : 6 939 kb/s
  22. Width                                    : 1 920 pixels
  23. Height                                   : 804 pixels
  24. Display aspect ratio                     : 2.40:1
  25. Frame rate mode                          : Constant
  26. Frame rate                               : 25.000 FPS
  27. Color space                              : YUV
  28. Chroma subsampling                       : 4:2:0
  29. Bit depth                                : 10 bits
  30. Bits/(Pixel*Frame)                       : 0.180
  31. Stream size                              : 4.93 GiB (63%)
  32. Writing library                          : x265 3.0+1-ed72af837053:[Windows][MSVC 1916][64 bit] 10bit
  33. Encoding settings                        : cpuid=533541111039 / frame-threads=3 / numa-pools=8 / wpp / no-pmode / pme / no-psnr / no-ssim / log-level=2 / input-csp=1 / input-res=1920x804 / interlace=0 / total-frames=0 / level-idc=0 / high-tier=1 / uhd-bd=0 / ref=6 / no-allow-non-conformance / repeat-headers / annexb / no-aud / no-hrd / info / hash=0 / no-temporal-layers / no-open-gop / min-keyint=1 / keyint=576 / gop-lookahead=0 / bframes=13 / b-adapt=2 / b-pyramid / bframe-bias=0 / rc-lookahead=70 / lookahead-slices=5 / NTMzNTQ=uuDQuD2mJt9fsCf / scenecut=40 / radl=0 / no-splice / no-intra-refresh / ctu=32 / min-cu-size=16 / rect / amp / max-tu-size=8 / tu-inter-depth=2 / tu-intra-depth=2 / limit-tu=3 / rdoq-level=1 / dynamic-rd=0.00 / no-ssim-rd / signhide / no-tskip / nr-intra=0 / nr-inter=0 / no-constrained-intra / no-strong-intra-smoothing / max-merge=3 / limit-refs=3 / limit-modes / me=3 / subme=7 / merange=48 / temporal-mvp / weightp / weightb / no-analyze-src-pics / deblock=-1:-1 / no-sao / no-sao-non-deblock / rd=3 / early-skip / no-rskip / no-fast-intra / no-tskip-fast / no-cu-lossless / no-b-intra / no-splitrd-skip / rdpenalty=2 / psy-rd=1.00 / psy-rdoq=0.00 / no-rd-refine / no-lossless / cbqpoffs=-2 / crqpoffs=-2 / rc=crf / crf=18.0 / qcomp=0.75 / qpstep=4 / stats-write=0 / stats-read=0 / ipratio=1.40 / pbratio=1.30 / aq-mode=3 / aq-strength=0.90 / cutree / zone-count=0 / no-strict-cbr / qg-size=32 / no-rc-grain / qpmax=69 / qpmin=0 / no-const-vbv / sar=0 / overscan=0 / videoformat=5 / range=0 / colorprim=2 / transfer=2 / colormatrix=2 / chromaloc=0 / display-window=0 / max-cll=0,0 / min-luma=0 / max-luma=1023 / log2-max-poc-lsb=8 / vui-timing-info / vui-hrd-info / slices=1 / no-opt-qp-pps / no-opt-ref-list-length-pps / no-multi-pass-opt-rps / scenecut-bias=0.05 / no-opt-cu-delta-qp / aq-motion / no-hdr / no-hdr-opt / no-dhdr10-opt / no-idr-recovery-sei / analysis-reuse-level=5 / scale-factor=0 / refine-intra=0 / refine-inter=0 / refine-mv=0 / refine-ctu-distortion=0 / no-limit-sao / ctu-info=0 / no-lowpass-dct / refine-analysis-type=0 / copy-pic=1 / max-ausize-factor=1.0 / no-dynamic-refine / no-single-sei / no-hevc-aq / qp-adaptation-range=1.00
  34. Default                                  : Yes
  35. Forced                                   : No
  36. Audio
  37. ID                                       : 2
  38. Format                                   : DTS XLL
  39. Format/Info                              : Digital Theater Systems
  40. Commercial name                          : DTS-HD Master Audio
  41. Codec ID                                 : A_DTS
  42. Duration                                 : 1 h 41 min
  43. Bit rate mode                            : Variable
  44. Bit rate                                 : 3 986 kb/s
  45. Channel(s)                               : 6 channels
  46. Channel layout                           : C L R Ls Rs LFE
  47. Sampling rate                            : 48.0 kHz
  48. Frame rate                               : 93.750 FPS (512 SPF)
  49. Bit depth                                : 24 bits
  50. Compression mode                         : Lossless
  51. Stream size                              : 2.83 GiB (36%)
  52. Title                                    : German
  53. Language                                 : German
  54. Default                                  : Yes
  55. Forced                                   : No
  56. Text #1
  57. ID                                       : 3
  58. Format                                   : PGS
  59. Muxing mode                              : zlib
  60. Codec ID                                 : S_HDMV/PGS
  61. Codec ID/Info                            : Picture based subtitle format used on BDs/HD-DVDs
  62. Duration                                 : 1 h 37 min
  63. Bit rate                                 : 28.6 kb/s
  64. Count of elements                        : 2347
  65. Stream size                              : 19.9 MiB (0%)
  66. Title                                    : Chs
  67. Language                                 : Chinese
  68. Default                                  : Yes
  69. Forced                                   : No
  70. Text #2
  71. ID                                       : 4
  72. Format                                   : PGS
  73. Muxing mode                              : zlib
  74. Codec ID                                 : S_HDMV/PGS
  75. Codec ID/Info                            : Picture based subtitle format used on BDs/HD-DVDs
  76. Duration                                 : 1 h 37 min
  77. Bit rate                                 : 29.6 kb/s
  78. Count of elements                        : 2347
  79. Stream size                              : 20.6 MiB (0%)
  80. Title                                    : Cht
  81. Language                                 : Chinese
  82. Default                                  : No
  83. Forced                                   : No
  84. Text #3
  85. ID                                       : 5
  86. Format                                   : PGS
  87. Muxing mode                              : zlib
  88. Codec ID                                 : S_HDMV/PGS
  89. Codec ID/Info                            : Picture based subtitle format used on BDs/HD-DVDs
  90. Duration                                 : 1 h 37 min
  91. Bit rate                                 : 33.1 kb/s
  92. Count of elements                        : 2212
  93. Stream size                              : 23.1 MiB (0%)
  94. Title                                    : Ger
  95. Language                                 : German
  96. Default                                  : No
  97. Forced                                   : No
  98. Text #4
  99. ID                                       : 6
  100. Format                                   : PGS
  101. Muxing mode                              : zlib
  102. Codec ID                                 : S_HDMV/PGS
  103. Codec ID/Info                            : Picture based subtitle format used on BDs/HD-DVDs
  104. Duration                                 : 1 h 37 min
  105. Bit rate                                 : 27.7 kb/s
  106. Count of elements                        : 1918
  107. Stream size                              : 19.3 MiB (0%)
  108. Title                                    : Eng
  109. Language                                 : English
  110. Default                                  : No
  111. Forced                                   : No
  112. Menu
  113. 00:00:00.000                             : :Chapter 01
  114. 00:04:27.080                             : :Chapter 02
  115. 00:11:11.240                             : :Chapter 03
  116. 00:18:06.320                             : :Chapter 04
  117. 00:24:45.840                             : :Chapter 05
  118. 00:29:37.960                             : :Chapter 06
  119. 00:36:23.040                             : :Chapter 07
  120. 00:41:53.920                             : :Chapter 08
  121. 00:48:30.000                             : :Chapter 09
  122. 00:55:18.920                             : :Chapter 10
  123. 01:01:10.960                             : :Chapter 11
  124. 01:06:13.920                             : :Chapter 12
  125. 01:09:59.280                             : :Chapter 13
  126. 01:17:00.160                             : :Chapter 14
  127. 01:23:37.360                             : :Chapter 15
  128. 01:37:55.440                             : :Chapter 16




下载地址:

Who.Am.I.2014.GER.BluRay.1080p.DTS-HD.MA5.1.x265.10bit-Xiaomi.torrent

BT9527电影天堂 1、BT9527电影天堂提供的BT文件均来源于互联网抓取,只供网友学习交流、技术提升使用。
2、我们遵守BitTorrent点对点协议原则,任何版权问题请联系原资源发布商,我们不处理任何版权纠纷,谢谢!如有争议请联系邮箱:BT9527#hotmail.com(#换成@)
3、如果您发现某页面或地址有错误,请联系站长邮箱BT9527#hotmail.com(#换成@),我们会尽快处理。您的热心是对BT9527电影天堂最大的支持。
4、本站建议去正规影院观看电影以支持电影行业发展。
最新回复 (0)

你可以在 登录 or 注册 后,对此帖发表评论!

返回
发新帖