佐伊[中文字幕].Zoe.2018.BluRay.1080p.DTS-HD.HRA5.1.x265.10bit-Xiaomi 5.57GB

版主小s 1月前 245

✔资源类型:暂未分类   ✔电影年份:2018   ✔电影地区:欧美   ✔电影分类:爱情

◎标  题 佐伊
◎译  名 人工恋爱情式(港) / 柔伊(台)
◎片  名 Zoe
◎年  代 2018
◎产  地 美国
◎类  别 爱情 / 科幻
◎语  言 英语
◎上映日期 2018-04-21(翠贝卡电影节) / 2018-07-20(美国)
◎IMDb评分 6/10 (8998人评价)
◎IMDb链接 https://www.imdb.com/title/tt6010628/
◎豆瓣评分 6.2/10 (1676人评价)
◎豆瓣链接 https://movie.douban.com/subject/26859006/
◎片  长 104分钟
◎导  演 德雷克·多雷穆斯 Drake Doremus
◎编  剧 理查德·格林伯格 Richard Greenberg
◎演  员 伊万·麦克格雷格 Ewan McGregor
       蕾雅·赛杜 Léa Seydoux
       拉什达·琼斯 Rashida Jones
       西奥·詹姆斯 Theo James
       马修·格雷·古柏勒 Matthew Gray Gubler
       米兰达·奥图 Miranda Otto
       克里斯蒂娜·阿奎莱拉 Christina Aguilera
       海伦·约翰斯 Helen Johns
       凯尔·盖特豪斯 Kyle Gatehouse
       斯蒂芬妮·吴 Stephanie Ng Wan
       崔斯坦·D·拉勒 Tristan D. Lalla
       利蒂希娅·布鲁克斯 Letitia Brookes
       丹·罗莫 Dan Romer
       约翰·古莱斯利安 John Guleserian

◎简  介
  两个在实验室的工作同事,他们共同设计一项发明,该发明用以证明完美恋爱关系的存在。
  1. ##### MediaInfo ######
  2. General
  3. Unique ID                                : 100611868693613260090485401451001198320 (0x4BB1241D0497CE0621AA296CC50AB6F0)
  4. Complete name                            : Zoe.2018.BluRay.1080p.DTS-HD.HRA5.1.x265.10bit-Xiaomi.mkv
  5. Format                                   : Matroska
  6. Format version                           : Version 4
  7. File size                                : 5.57 GiB
  8. Duration                                 : 1 h 44 min
  9. Overall bit rate                         : 7 646 kb/s
  10. Movie name                               : Today @ CHD
  11. Encoded date                             : UTC 2019-01-11 10:47:20
  12. Writing application                      : mkvmerge v30.1.0 ('Forever And More') 64-bit
  13. Writing library                          : libebml v1.3.6 + libmatroska v1.4.9
  14. Cover                                    : Yes
  15. Attachments                              : cover.png
  16. Video
  17. ID                                       : 1
  18. Format                                   : HEVC
  19. Format/Info                              : High Efficiency Video Coding
  20. Format profile                           : Main 10@L4@Main
  21. Codec ID                                 : V_MPEGH/ISO/HEVC
  22. Duration                                 : 1 h 44 min
  23. Bit rate                                 : 5 530 kb/s
  24. Width                                    : 1 920 pixels
  25. Height                                   : 804 pixels
  26. Display aspect ratio                     : 2.40:1
  27. Frame rate mode                          : Constant
  28. Frame rate                               : 23.976 (23976/1000/53354) FPS
  29. Color space                              : YUV
  30. Chroma subsampling                       : 4:2:0
  31. Bit depth                                : 10 bits
  32. Bits/(Pixel*Frame)                       : 0.149
  33. Stream size                              : 4.03 GiB (72%)
  34. Writing library                          : x265 2.7+17-2e370d98c806:[Windows][GCC 6.3.0][64 bit] 10bit
  35. Encoding settings                        : cpuid=533541173503 / frame-threads=3 / numa-pools=8 / wpp / no-pmode / pme / no-psnr / no-ssim / log-level=2 / input-csp=1 / input-res=1920x804 / interlace=0 / total-frames=0 / level-idc=0 / high-tier=1 / uhd-bd=0 / ref=6 / no-allow-non-conformance / repeat-headers / annexb / no-aud / no-hrd / info / hash=0 / no-temporal-layers / no-open-gop / min-keyint=1 / keyint=576 / gop-lookahead=0 / bframes=12 / b-adapt=2 / b-pyramid / bframe-bias=0 / rc-lookahead=70 / lookahead-slices=5 / NTMzNTQ=uuDQuD2mJt9fsCf / scenecut=40 / radl=0 / no-intra-refresh / ctu=32 / min-cu-size=16 / rect / amp / max-tu-size=8 / tu-inter-depth=2 / tu-intra-depth=2 / limit-tu=3 / rdoq-level=1 / dynamic-rd=0.00 / no-ssim-rd / signhide / no-tskip / nr-intra=0 / nr-inter=0 / no-constrained-intra / no-strong-intra-smoothing / max-merge=3 / limit-refs=3 / limit-modes / me=3 / subme=5 / merange=48 / temporal-mvp / weightp / weightb / no-analyze-src-pics / deblock=-1:-1 / no-sao / no-sao-non-deblock / rd=3 / early-skip / no-rskip / no-fast-intra / no-tskip-fast / no-cu-lossless / no-b-intra / no-splitrd-skip / rdpenalty=2 / psy-rd=1.00 / psy-rdoq=0.00 / no-rd-refine / no-lossless / cbqpoffs=-2 / crqpoffs=-2 / rc=crf / crf=17.0 / qcomp=0.75 / qpstep=4 / stats-write=0 / stats-read=0 / ipratio=1.40 / pbratio=1.30 / aq-mode=3 / aq-strength=0.90 / cutree / zone-count=0 / no-strict-cbr / qg-size=32 / no-rc-grain / qpmax=69 / qpmin=0 / no-const-vbv / sar=0 / overscan=0 / videoformat=5 / range=0 / colorprim=2 / transfer=2 / colormatrix=2 / chromaloc=0 / display-window=0 / max-cll=0,0 / min-luma=0 / max-luma=1023 / log2-max-poc-lsb=8 / vui-timing-info / vui-hrd-info / slices=1 / no-opt-qp-pps / no-opt-ref-list-length-pps / no-multi-pass-opt-rps / scenecut-bias=0.05 / no-opt-cu-delta-qp / aq-motion / no-hdr / no-hdr-opt / no-dhdr10-opt / no-idr-recovery-sei / analysis-reuse-level=5 / scale-factor=0 / refine-intra=0 / refine-inter=0 / refine-mv=0 / no-limit-sao / ctu-info=0 / no-lowpass-dct / refine-mv-type=0 / copy-pic=1 / max-ausize-factor=1.0 / no-dynamic-refine
  36. Default                                  : Yes
  37. Forced                                   : No
  38. Audio
  39. ID                                       : 2
  40. Format                                   : DTS XBR
  41. Format/Info                              : Digital Theater Systems
  42. Commercial name                          : DTS-HD High Resolution Audio
  43. Codec ID                                 : A_DTS
  44. Duration                                 : 1 h 44 min
  45. Bit rate mode                            : Constant
  46. Bit rate                                 : 2 046 kb/s
  47. Channel(s)                               : 6 channels
  48. Channel layout                           : C L R Ls Rs LFE
  49. Sampling rate                            : 48.0 kHz
  50. Frame rate                               : 93.750 FPS (512 SPF)
  51. Bit depth                                : 24 bits
  52. Compression mode                         : Lossy
  53. Stream size                              : 1.49 GiB (27%)
  54. Title                                    : English
  55. Language                                 : English
  56. Default                                  : Yes
  57. Forced                                   : No
  58. Text #1
  59. ID                                       : 3
  60. Format                                   : PGS
  61. Muxing mode                              : zlib
  62. Codec ID                                 : S_HDMV/PGS
  63. Codec ID/Info                            : Picture based subtitle format used on BDs/HD-DVDs
  64. Duration                                 : 1 h 36 min
  65. Bit rate                                 : 35.9 kb/s
  66. Count of elements                        : 2271
  67. Stream size                              : 24.9 MiB (0%)
  68. Title                                    : Chs&Eng
  69. Language                                 : Chinese
  70. Default                                  : Yes
  71. Forced                                   : No
  72. Text #2
  73. ID                                       : 4
  74. Format                                   : PGS
  75. Muxing mode                              : zlib
  76. Codec ID                                 : S_HDMV/PGS
  77. Codec ID/Info                            : Picture based subtitle format used on BDs/HD-DVDs
  78. Duration                                 : 1 h 36 min
  79. Bit rate                                 : 37.5 kb/s
  80. Count of elements                        : 2271
  81. Stream size                              : 26.0 MiB (0%)
  82. Title                                    : Cht&Eng
  83. Language                                 : Chinese
  84. Default                                  : No
  85. Forced                                   : No
  86. Text #3
  87. ID                                       : 5
  88. Format                                   : PGS
  89. Muxing mode                              : zlib
  90. Codec ID                                 : S_HDMV/PGS
  91. Codec ID/Info                            : Picture based subtitle format used on BDs/HD-DVDs
  92. Duration                                 : 1 h 36 min
  93. Bit rate                                 : 22.8 kb/s
  94. Count of elements                        : 2271
  95. Stream size                              : 15.8 MiB (0%)
  96. Title                                    : Chs
  97. Language                                 : Chinese
  98. Default                                  : No
  99. Forced                                   : No
  100. Text #4
  101. ID                                       : 6
  102. Format                                   : PGS
  103. Muxing mode                              : zlib
  104. Codec ID                                 : S_HDMV/PGS
  105. Codec ID/Info                            : Picture based subtitle format used on BDs/HD-DVDs
  106. Duration                                 : 1 h 36 min
  107. Bit rate                                 : 24.6 kb/s
  108. Count of elements                        : 2271
  109. Stream size                              : 17.0 MiB (0%)
  110. Title                                    : Cht
  111. Language                                 : Chinese
  112. Default                                  : No
  113. Forced                                   : No
  114. Text #5
  115. ID                                       : 7
  116. Format                                   : PGS
  117. Muxing mode                              : zlib
  118. Codec ID                                 : S_HDMV/PGS
  119. Codec ID/Info                            : Picture based subtitle format used on BDs/HD-DVDs
  120. Duration                                 : 1 h 43 min
  121. Bit rate                                 : 30.5 kb/s
  122. Count of elements                        : 2146
  123. Stream size                              : 22.5 MiB (0%)
  124. Title                                    : Ger
  125. Language                                 : German
  126. Default                                  : No
  127. Forced                                   : No
  128. Menu
  129. 00:00:00.000                             : :第 01 章
  130. 00:04:13.461                             : :第 02 章
  131. 00:10:58.115                             : :第 03 章
  132. 00:16:10.094                             : :第 04 章
  133. 00:20:28.435                             : :第 05 章
  134. 00:25:21.853                             : :第 06 章
  135. 00:30:06.638                             : :第 07 章
  136. 00:36:25.933                             : :第 08 章
  137. 00:42:09.485                             : :第 09 章
  138. 00:44:45.724                             : :第 10 章
  139. 00:51:32.047                             : :第 11 章
  140. 00:57:27.652                             : :第 12 章
  141. 01:04:16.018                             : :第 13 章
  142. 01:08:08.000                             : :第 14 章
  143. 01:13:20.354                             : :第 15 章
  144. 01:18:10.811                             : :第 16 章
  145. 01:23:29.671                             : :第 17 章
  146. 01:30:35.680                             : :第 18 章
  147. 01:38:23.772                             : :第 19 章


下载地址:

Zoe.2018.BluRay.1080p.DTS-HD.HRA5.1.x265.10bit-Xiaomi.torrent

BT9527电影天堂 1、BT9527电影天堂提供的BT文件均来源于互联网抓取,只供网友学习交流、技术提升使用。
2、我们遵守BitTorrent点对点协议原则,任何版权问题请联系原资源发布商,我们不处理任何版权纠纷,谢谢!如有争议请联系邮箱:BT9527#hotmail.com(#换成@)
3、如果您发现某页面或地址有错误,请联系站长邮箱BT9527#hotmail.com(#换成@),我们会尽快处理。您的热心是对BT9527电影天堂最大的支持。
4、本站建议去正规影院观看电影以支持电影行业发展。
最新回复 (0)

你可以在 登录 or 注册 后,对此帖发表评论!

返回