僵尸来袭2:末日[中文字幕].Wyrmwood.Apocalypse.2021.BluRay.1080p.DTS-HDMA5.1.x265.10bit-Xiaomi 7.03GB

版主小s 1月前 508

✔资源类型:暂未分类   ✔电影年份:2022   ✔电影地区:其他   ✔电影分类:动作

◎标  题 僵尸来袭2:末日
◎片  名 Wyrmwood: Apocalypse
◎年  代 2022
◎产  地 澳大利亚 Australia
◎类  别 动作 / 科幻 / 恐怖
◎语  言 英语
◎上映日期 2022-02-01(悉尼)
◎IMDb评分 5.3/10 (1363人评价)
◎IMDb链接 https://www.imdb.com/title/tt14858054/
◎豆瓣评分 5.7/10 (1306人评价)
◎豆瓣链接 https://movie.douban.com/subject/35505492/
◎片  长 88分钟
◎导  演 凯亚·罗奇-特纳 Kiah Roache-Turner
◎编  剧 凯亚·罗奇-特纳 Kiah Roache-Turner
       崔斯坦·罗奇-特纳 Tristan Roache-Turner
◎演  员 碧安卡·布雷迪 Bianca Bradey

◎简  介
  In a zombie-infested Australian wasteland, soldier Rhys has dedicated his life to tracking and capturing survivors for the Surgeon General in hopes of finding a cure.
  1. ##### MediaInfo ######
  2. General
  3. Unique ID                                : 292878368674856460745039221180863074154 (0xDC565270851F3D4D39CFCE081A87CF6A)
  4. Complete name                            : Wyrmwood.Apocalypse.2021.BluRay.1080p.DTS-HDMA5.1.x265.10bit-Xiaomi.mkv
  5. Format                                   : Matroska
  6. Format version                           : Version 4
  7. File size                                : 7.03 GiB
  8. Duration                                 : 1 h 28 min
  9. Overall bit rate mode                    : Variable
  10. Overall bit rate                         : 11.4 Mb/s
  11. Encoded date                             : UTC 2022-04-24 04:54:00
  12. Writing application                      : mkvmerge v62.0.0 ('Apollo') 64-bit
  13. Writing library                          : libebml v1.4.2 + libmatroska v1.6.4
  14. Video
  15. ID                                       : 1
  16. Format                                   : HEVC
  17. Format/Info                              : High Efficiency Video Coding
  18. Format profile                           : Main 10@L4@Main
  19. Codec ID                                 : V_MPEGH/ISO/HEVC
  20. Duration                                 : 1 h 28 min
  21. Bit rate                                 : 7 249 kb/s
  22. Width                                    : 1 920 pixels
  23. Height                                   : 804 pixels
  24. Display aspect ratio                     : 2.40:1
  25. Frame rate mode                          : Constant
  26. Frame rate                               : 24.000 FPS
  27. Color space                              : YUV
  28. Chroma subsampling                       : 4:2:0
  29. Bit depth                                : 10 bits
  30. Bits/(Pixel*Frame)                       : 0.196
  31. Stream size                              : 4.46 GiB (63%)
  32. Writing library                          : x265 3.5+10-82786fccc:[Windows][MSVC 1929][64 bit] 10bit
  33. Encoding settings                        : cpuid=533541111039 / frame-threads=5 / numa-pools=36,36 / wpp / no-pmode / no-pme / no-psnr / no-ssim / log-level=2 / input-csp=1 / input-res=1920x804 / interlace=0 / total-frames=0 / level-idc=0 / high-tier=1 / uhd-bd=0 / ref=6 / no-allow-non-conformance / repeat-headers / annexb / no-aud / no-eob / no-eos / no-hrd / info / hash=0 / no-temporal-layers / no-open-gop / min-keyint=24 / keyint=250 / gop-lookahead=0 / bframes=8 / b-adapt=2 / b-pyramid / bframe-bias=0 / rc-lookahead=24 / lookahead-slices=5 / NTMzNTQ=uuDQuD2mJt9fsCf / scenecut=40 / hist-scenecut=0 / radl=0 / no-splice / no-intra-refresh / ctu=64 / min-cu-size=8 / no-rect / no-amp / max-tu-size=32 / tu-inter-depth=1 / tu-intra-depth=1 / limit-tu=0 / rdoq-level=0 / dynamic-rd=0.00 / no-ssim-rd / signhide / no-tskip / nr-intra=0 / nr-inter=0 / no-constrained-intra / no-strong-intra-smoothing / max-merge=3 / limit-refs=1 / no-limit-modes / me=2 / subme=7 / merange=48 / temporal-mvp / no-frame-dup / no-hme / weightp / weightb / no-analyze-src-pics / deblock=0:0 / sao / no-sao-non-deblock / rd=4 / selective-sao=4 / early-skip / rskip / no-fast-intra / no-tskip-fast / no-cu-lossless / b-intra / no-splitrd-skip / rdpenalty=0 / psy-rd=2.00 / psy-rdoq=0.00 / no-rd-refine / no-lossless / cbqpoffs=0 / crqpoffs=0 / rc=crf / crf=16.0 / qcomp=0.60 / qpstep=4 / stats-write=0 / stats-read=0 / ipratio=1.40 / pbratio=1.30 / aq-mode=3 / aq-strength=1.00 / cutree / zone-count=0 / no-strict-cbr / qg-size=32 / no-rc-grain / qpmax=69 / qpmin=0 / no-const-vbv / sar=0 / overscan=0 / videoformat=5 / range=0 / colorprim=2 / transfer=2 / colormatrix=2 / chromaloc=0 / display-window=0 / cll=0,0 / min-luma=0 / max-luma=1023 / log2-max-poc-lsb=8 / vui-timing-info / vui-hrd-info / slices=1 / no-opt-qp-pps / no-opt-ref-list-length-pps / no-multi-pass-opt-rps / scenecut-bias=0.05 / hist-threshold=0.03 / no-opt-cu-delta-qp / aq-motion / no-hdr10 / no-hdr10-opt / no-dhdr10-opt / no-idr-recovery-sei / analysis-reuse-level=0 / analysis-save-reuse-level=0 / analysis-load-reuse-level=0 / scale-factor=0 / refine-intra=0 / refine-inter=0 / refine-mv=1 / refine-ctu-distortion=0 / no-limit-sao / ctu-info=0 / no-lowpass-dct / refine-analysis-type=0 / copy-pic=1 / max-ausize-factor=1.0 / no-dynamic-refine / no-single-sei / no-hevc-aq / no-svt / no-field / qp-adaptation-range=1.00 / scenecut-aware-qp=0conformance-window-offsets / right=0 / bottom=0 / NTMzNTQ= / decoder-max-rate=0 / no-vbv-live-multi-pass
  34. Default                                  : Yes
  35. Forced                                   : No
  36. Audio
  37. ID                                       : 2
  38. Format                                   : DTS XLL
  39. Format/Info                              : Digital Theater Systems
  40. Commercial name                          : DTS-HD Master Audio
  41. Codec ID                                 : A_DTS
  42. Duration                                 : 1 h 28 min
  43. Bit rate mode                            : Variable
  44. Bit rate                                 : 4 150 kb/s
  45. Channel(s)                               : 6 channels
  46. Channel layout                           : C L R Ls Rs LFE
  47. Sampling rate                            : 48.0 kHz
  48. Frame rate                               : 93.750 FPS (512 SPF)
  49. Bit depth                                : 24 bits
  50. Compression mode                         : Lossless
  51. Stream size                              : 2.55 GiB (36%)
  52. Language                                 : English
  53. Default                                  : Yes
  54. Forced                                   : No
  55. Text #1
  56. ID                                       : 3
  57. Format                                   : PGS
  58. Muxing mode                              : zlib
  59. Codec ID                                 : S_HDMV/PGS
  60. Codec ID/Info                            : Picture based subtitle format used on BDs/HD-DVDs
  61. Duration                                 : 1 h 22 min
  62. Bit rate                                 : 8 379 b/s
  63. Count of elements                        : 1067
  64. Stream size                              : 4.95 MiB (0%)
  65. Language                                 : Chinese
  66. Default                                  : Yes
  67. Forced                                   : No
  68. Text #2
  69. ID                                       : 4
  70. Format                                   : PGS
  71. Muxing mode                              : zlib
  72. Codec ID                                 : S_HDMV/PGS
  73. Codec ID/Info                            : Picture based subtitle format used on BDs/HD-DVDs
  74. Duration                                 : 1 h 22 min
  75. Bit rate                                 : 8 518 b/s
  76. Count of elements                        : 1067
  77. Stream size                              : 5.03 MiB (0%)
  78. Language                                 : Chinese
  79. Default                                  : Yes
  80. Forced                                   : No
  81. Text #3
  82. ID                                       : 5
  83. Format                                   : PGS
  84. Muxing mode                              : zlib
  85. Codec ID                                 : S_HDMV/PGS
  86. Codec ID/Info                            : Picture based subtitle format used on BDs/HD-DVDs
  87. Duration                                 : 1 h 22 min
  88. Bit rate                                 : 17.8 kb/s
  89. Count of elements                        : 1067
  90. Stream size                              : 10.5 MiB (0%)
  91. Language                                 : Chinese
  92. Default                                  : Yes
  93. Forced                                   : No
  94. Text #4
  95. ID                                       : 6
  96. Format                                   : PGS
  97. Muxing mode                              : zlib
  98. Codec ID                                 : S_HDMV/PGS
  99. Codec ID/Info                            : Picture based subtitle format used on BDs/HD-DVDs
  100. Duration                                 : 1 h 22 min
  101. Bit rate                                 : 17.9 kb/s
  102. Count of elements                        : 1067
  103. Stream size                              : 10.6 MiB (0%)
  104. Language                                 : Chinese
  105. Default                                  : Yes
  106. Forced                                   : No
  107. Text #5
  108. ID                                       : 7
  109. Format                                   : PGS
  110. Muxing mode                              : zlib
  111. Codec ID                                 : S_HDMV/PGS
  112. Codec ID/Info                            : Picture based subtitle format used on BDs/HD-DVDs
  113. Duration                                 : 1 h 23 min
  114. Bit rate                                 : 20.8 kb/s
  115. Count of elements                        : 1514
  116. Stream size                              : 12.4 MiB (0%)
  117. Language                                 : English
  118. Default                                  : Yes
  119. Forced                                   : No
  120. Menu
  121. 00:00:00.000                             : en:第 01 章
  122. 00:07:19.167                             : en:第 02 章
  123. 00:14:16.292                             : en:第 03 章
  124. 00:19:56.958                             : en:第 04 章
  125. 00:26:26.875                             : en:第 05 章
  126. 00:33:42.958                             : en:第 06 章
  127. 00:41:14.292                             : en:第 07 章
  128. 00:48:36.042                             : en:第 08 章
  129. 00:57:50.708                             : en:第 09 章
  130. 01:03:56.667                             : en:第 10 章
  131. 01:14:59.708                             : en:第 11 章
  132. 01:24:17.625                             : en:第 12 章




下载地址:

Wyrmwood.Apocalypse.2021.BluRay.1080p.DTS-HDMA5.1.x265.10bit-Xiaomi.torrent

BT9527电影天堂 1、BT9527电影天堂提供的BT文件均来源于互联网抓取,只供网友学习交流、技术提升使用。
2、我们遵守BitTorrent点对点协议原则,任何版权问题请联系原资源发布商,我们不处理任何版权纠纷,谢谢!如有争议请联系邮箱:BT9527#hotmail.com(#换成@)
3、如果您发现某页面或地址有错误,请联系站长邮箱BT9527#hotmail.com(#换成@),我们会尽快处理。您的热心是对BT9527电影天堂最大的支持。
4、本站建议去正规影院观看电影以支持电影行业发展。
最新回复 (0)

你可以在 登录 or 注册 后,对此帖发表评论!

返回
发新帖