波斯坦妮·卡迪娜拉[中文字幕].Wyszynski.zemsta.czy.przebaczenie.2021.BluRay.1080p.DTS-HDMA5.1.x265.10bit-Xiaomi 6.36GB

版主小s 1月前 302

✔资源类型:暂未分类   ✔电影年份:2021   ✔电影地区:其他   ✔电影分类:其他

◎标  题 波斯坦妮·卡迪娜拉
◎译  名 Powstanie kardynala
◎片  名 Wyszynski - zemsta czy przebaczenie
◎年  代 2021
◎产  地 波兰
◎类  别 传记 / 战争
◎语  言 波兰语
◎上映日期 2021-09-17(波兰)
◎IMDb评分 4.5/10 (147人评价)
◎IMDb链接 https://www.imdb.com/title/tt15143148/
◎豆瓣评分 5.0/10 (75人评价)
◎豆瓣链接 https://movie.douban.com/subject/35584313/
◎导  演 塔德乌什·西卡 Tadeusz Syka
◎编  剧 塔德乌什·西卡 Tadeusz Syka
◎演  员  Agnieszka Kawiorska
       Ida Nowakowska Ida Nowakowska
       塔德乌什·西卡 Tadeusz Syka

  1. ##### MediaInfo ######
  2. General
  3. Unique ID                                : 5871933033885385811822634091701607697 (0x46AE4A6893FABF104E4A178E56C1D11)
  4. Complete name                            : Wyszynski.zemsta.czy.przebaczenie.2021.BluRay.1080p.DTS-HDMA5.1.x265.10bit-Xiaomi.mkv
  5. Format                                   : Matroska
  6. Format version                           : Version 4
  7. File size                                : 6.36 GiB
  8. Duration                                 : 1 h 31 min
  9. Overall bit rate mode                    : Variable
  10. Overall bit rate                         : 9 904 kb/s
  11. Encoded date                             : UTC 2022-02-11 04:06:32
  12. Writing application                      : mkvmerge v62.0.0 ('Apollo') 64-bit
  13. Writing library                          : libebml v1.4.2 + libmatroska v1.6.4
  14. Video
  15. ID                                       : 1
  16. Format                                   : HEVC
  17. Format/Info                              : High Efficiency Video Coding
  18. Format profile                           : Main 10@L5@Main
  19. Codec ID                                 : V_MPEGH/ISO/HEVC
  20. Duration                                 : 1 h 31 min
  21. Bit rate                                 : 5 681 kb/s
  22. Width                                    : 1 920 pixels
  23. Height                                   : 1 080 pixels
  24. Display aspect ratio                     : 16:9
  25. Frame rate mode                          : Constant
  26. Frame rate                               : 24.000 FPS
  27. Color space                              : YUV
  28. Chroma subsampling                       : 4:2:0
  29. Bit depth                                : 10 bits
  30. Bits/(Pixel*Frame)                       : 0.114
  31. Stream size                              : 3.65 GiB (57%)
  32. Writing library                          : x265 3.5+10-82786fccc:[Windows][MSVC 1929][64 bit] 10bit
  33. Encoding settings                        : cpuid=533541111039 / frame-threads=5 / numa-pools=36,36 / wpp / no-pmode / no-pme / no-psnr / no-ssim / log-level=2 / input-csp=1 / input-res=1920x1080 / interlace=0 / total-frames=0 / level-idc=0 / high-tier=1 / uhd-bd=0 / ref=6 / no-allow-non-conformance / repeat-headers / annexb / no-aud / no-eob / no-eos / no-hrd / info / hash=0 / no-temporal-layers / no-open-gop / min-keyint=24 / keyint=250 / gop-lookahead=0 / bframes=8 / b-adapt=2 / b-pyramid / bframe-bias=0 / rc-lookahead=24 / lookahead-slices=6 / NTMzNTQ=uuDQuD2mJt9fsCf / scenecut=40 / hist-scenecut=0 / radl=0 / no-splice / no-intra-refresh / ctu=64 / min-cu-size=8 / no-rect / no-amp / max-tu-size=32 / tu-inter-depth=1 / tu-intra-depth=1 / limit-tu=0 / rdoq-level=0 / dynamic-rd=0.00 / no-ssim-rd / signhide / no-tskip / nr-intra=0 / nr-inter=0 / no-constrained-intra / no-strong-intra-smoothing / max-merge=3 / limit-refs=1 / no-limit-modes / me=2 / subme=7 / merange=48 / temporal-mvp / no-frame-dup / no-hme / weightp / weightb / no-analyze-src-pics / deblock=0:0 / sao / no-sao-non-deblock / rd=4 / selective-sao=4 / early-skip / rskip / no-fast-intra / no-tskip-fast / no-cu-lossless / b-intra / no-splitrd-skip / rdpenalty=0 / psy-rd=2.00 / psy-rdoq=0.00 / no-rd-refine / no-lossless / cbqpoffs=0 / crqpoffs=0 / rc=crf / crf=16.0 / qcomp=0.60 / qpstep=4 / stats-write=0 / stats-read=0 / ipratio=1.40 / pbratio=1.30 / aq-mode=3 / aq-strength=1.00 / cutree / zone-count=0 / no-strict-cbr / qg-size=32 / no-rc-grain / qpmax=69 / qpmin=0 / no-const-vbv / sar=0 / overscan=0 / videoformat=5 / range=0 / colorprim=2 / transfer=2 / colormatrix=2 / chromaloc=0 / display-window=0 / cll=0,0 / min-luma=0 / max-luma=1023 / log2-max-poc-lsb=8 / vui-timing-info / vui-hrd-info / slices=1 / no-opt-qp-pps / no-opt-ref-list-length-pps / no-multi-pass-opt-rps / scenecut-bias=0.05 / hist-threshold=0.03 / no-opt-cu-delta-qp / aq-motion / no-hdr10 / no-hdr10-opt / no-dhdr10-opt / no-idr-recovery-sei / analysis-reuse-level=0 / analysis-save-reuse-level=0 / analysis-load-reuse-level=0 / scale-factor=0 / refine-intra=0 / refine-inter=0 / refine-mv=1 / refine-ctu-distortion=0 / no-limit-sao / ctu-info=0 / no-lowpass-dct / refine-analysis-type=0 / copy-pic=1 / max-ausize-factor=1.0 / no-dynamic-refine / no-single-sei / no-hevc-aq / no-svt / no-field / qp-adaptation-range=1.00 / scenecut-aware-qp=0conformance-window-offsets / right=0 / bottom=0 / NTMzNTQ= / decoder-max-rate=0 / no-vbv-live-multi-pass
  34. Default                                  : Yes
  35. Forced                                   : No
  36. Audio
  37. ID                                       : 2
  38. Format                                   : DTS XLL
  39. Format/Info                              : Digital Theater Systems
  40. Commercial name                          : DTS-HD Master Audio
  41. Codec ID                                 : A_DTS
  42. Duration                                 : 1 h 31 min
  43. Bit rate mode                            : Variable
  44. Bit rate                                 : 4 106 kb/s
  45. Channel(s)                               : 6 channels
  46. Channel layout                           : C L R Ls Rs LFE
  47. Sampling rate                            : 48.0 kHz
  48. Frame rate                               : 93.750 FPS (512 SPF)
  49. Bit depth                                : 24 bits
  50. Compression mode                         : Lossless
  51. Stream size                              : 2.64 GiB (41%)
  52. Default                                  : Yes
  53. Forced                                   : No
  54. Text #1
  55. ID                                       : 3
  56. Format                                   : PGS
  57. Muxing mode                              : zlib
  58. Codec ID                                 : S_HDMV/PGS
  59. Codec ID/Info                            : Picture based subtitle format used on BDs/HD-DVDs
  60. Duration                                 : 1 h 26 min
  61. Bit rate                                 : 46.4 kb/s
  62. Count of elements                        : 2579
  63. Stream size                              : 28.6 MiB (0%)
  64. Language                                 : Chinese
  65. Default                                  : Yes
  66. Forced                                   : No
  67. Text #2
  68. ID                                       : 4
  69. Format                                   : PGS
  70. Muxing mode                              : zlib
  71. Codec ID                                 : S_HDMV/PGS
  72. Codec ID/Info                            : Picture based subtitle format used on BDs/HD-DVDs
  73. Duration                                 : 1 h 26 min
  74. Bit rate                                 : 46.8 kb/s
  75. Count of elements                        : 2579
  76. Stream size                              : 28.8 MiB (0%)
  77. Language                                 : Chinese
  78. Default                                  : Yes
  79. Forced                                   : No
  80. Text #3
  81. ID                                       : 5
  82. Format                                   : PGS
  83. Muxing mode                              : zlib
  84. Codec ID                                 : S_HDMV/PGS
  85. Codec ID/Info                            : Picture based subtitle format used on BDs/HD-DVDs
  86. Duration                                 : 1 h 26 min
  87. Bit rate                                 : 58.3 kb/s
  88. Count of elements                        : 2579
  89. Stream size                              : 35.9 MiB (1%)
  90. Language                                 : Chinese
  91. Default                                  : Yes
  92. Forced                                   : No
  93. Text #4
  94. ID                                       : 6
  95. Format                                   : PGS
  96. Muxing mode                              : zlib
  97. Codec ID                                 : S_HDMV/PGS
  98. Codec ID/Info                            : Picture based subtitle format used on BDs/HD-DVDs
  99. Duration                                 : 1 h 26 min
  100. Bit rate                                 : 58.7 kb/s
  101. Count of elements                        : 2579
  102. Stream size                              : 36.2 MiB (1%)
  103. Language                                 : Chinese
  104. Default                                  : Yes
  105. Forced                                   : No
  106. Text #5
  107. ID                                       : 7
  108. Format                                   : PGS
  109. Muxing mode                              : zlib
  110. Codec ID                                 : S_HDMV/PGS
  111. Codec ID/Info                            : Picture based subtitle format used on BDs/HD-DVDs
  112. Duration                                 : 1 h 24 min
  113. Bit rate                                 : 21.5 kb/s
  114. Count of elements                        : 1450
  115. Stream size                              : 13.0 MiB (0%)
  116. Language                                 : English
  117. Default                                  : Yes
  118. Forced                                   : No
  119. Menu
  120. 00:00:00.000                             : en:第 01 章
  121. 00:07:34.125                             : en:第 02 章
  122. 00:16:18.250                             : en:第 03 章
  123. 00:24:47.917                             : en:第 04 章
  124. 00:33:27.625                             : en:第 05 章
  125. 00:41:45.167                             : en:第 06 章
  126. 00:50:46.125                             : en:第 07 章
  127. 00:57:56.000                             : en:第 08 章
  128. 01:04:06.958                             : en:第 09 章
  129. 01:13:25.417                             : en:第 10 章
  130. 01:20:17.250                             : en:第 11 章
  131. 01:26:30.750                             : en:第 12 章




下载地址:

Wyszynski.zemsta.czy.przebaczenie.2021.BluRay.1080p.DTS-HDMA5.1.x265.10bit-Xiaomi.torrent

BT9527电影天堂 1、BT9527电影天堂提供的BT文件均来源于互联网抓取,只供网友学习交流、技术提升使用。
2、我们遵守BitTorrent点对点协议原则,任何版权问题请联系原资源发布商,我们不处理任何版权纠纷,谢谢!如有争议请联系邮箱:BT9527#hotmail.com(#换成@)
3、如果您发现某页面或地址有错误,请联系站长邮箱BT9527#hotmail.com(#换成@),我们会尽快处理。您的热心是对BT9527电影天堂最大的支持。
4、本站建议去正规影院观看电影以支持电影行业发展。
最新回复 (0)

你可以在 登录 or 注册 后,对此帖发表评论!

返回
发新帖