啊,荒野 前篇[简繁字幕].Wilderness.Part.One.2017.BluRay.1080p.x265.10bit-MiniHD 5.84GB

版主小s 2月前 355

✔资源类型:暂未分类   ✔电影年份:2017   ✔电影地区:日本   ✔电影分类:剧情

◎标  题 啊,荒野 前篇
◎译  名 Ah /  Wilderness
◎片  名 あゝ、荒野 前篇
◎年  代 2017
◎产  地 日本
◎类  别 剧情
◎语  言 日语
◎上映日期 2017-10-07(日本)
◎IMDb评分 6.9/10 (286人评价)
◎IMDb链接 https://www.imdb.com/title/tt5905008/
◎豆瓣评分 8.4/10 (25690人评价)
◎豆瓣链接 https://movie.douban.com/subject/26842503/
◎片  长 157分钟
◎导  演 岸善幸 Yoshiyuki Kishi
◎编  剧 港岳彦 Takehiko Minato
       岸善幸 Yoshiyuki Kishi
       寺山修司 Shuji Terayama
◎演  员 菅田将晖 Masaki Suda
       梁益准 Yang Ik-Joon
       木下明里 Akari Kinoshita
       茂吕师冈 Moro Morooka
       高桥和也 Kazuya Takahashi
       今野杏南 Anna Konno
       山田裕贵 Yûki Yamada
       河井青叶 Aoba Kawai
       前原滉 Maeko
       萩原利久 Riku Hagiwara
       小林且弥 Katsuya Kobayashi
       川口觉 Satoru Kawaguchi
       山中崇 Takashi Yamanaka
       绪方义博 Denden
       木村多江 Tae Kimura
       中山裕介 Yusuke Santamaria
       山本浩司 Hiroshi Yamamoto
       铃木卓尔 Takuji Suzuki
       大内田悠平 Yûhei Ohuchida
       玉川莲 Ren Tamagawa
       岩代太郎 Tarô Iwashiro
       徐贤先 Hyeon Seon Seo

◎标  签 日本 / 人性 / 成长 / 社会 / 剧情 / 青春 / 2017 / 拳击

◎简  介
  作品改编自寺山修司的同名原著,将时间改为了近未来的2021年,但仍聚焦于年轻人的迷惘和焦躁。
  1. ##### MediaInfo ######
  2. General
  3. Unique ID                                : 320064374020068421853134757255444124338 (0xF0CA27FD18718DD5D133EAA0C6FB52B2)
  4. Complete name                            : Wilderness.Part.One.2017.BluRay.1080p.x265.10bit-MiniHD.mkv
  5. Format                                   : Matroska
  6. Format version                           : Version 4
  7. File size                                : 5.84 GiB
  8. Duration                                 : 2 h 44 min
  9. Overall bit rate                         : 5 092 kb/s
  10. Encoded date                             : UTC 2017-12-20 06:57:06
  11. Writing application                      : mkvmerge v19.0.0 ('Brave Captain') 64-bit
  12. Writing library                          : libebml v1.3.5 + libmatroska v1.4.8
  13. Attachments                              : 方正准圆_GBK.TTF / 方正综艺_GBK.ttf

  14. Video
  15. ID                                       : 1
  16. Format                                   : HEVC
  17. Format/Info                              : High Efficiency Video Coding
  18. Format profile                           : Main 10@L4@Main
  19. Codec ID                                 : V_MPEGH/ISO/HEVC
  20. Duration                                 : 2 h 44 min
  21. Bit rate                                 : 4 440 kb/s
  22. Width                                    : 1 792 pixels
  23. Height                                   : 1 080 pixels
  24. Display aspect ratio                     : 5:3
  25. Frame rate mode                          : Constant
  26. Frame rate                               : 23.976 (24000/1001/53354) FPS
  27. Color space                              : YUV
  28. Chroma subsampling                       : 4:2:0
  29. Bit depth                                : 10 bits
  30. Bits/(Pixel*Frame)                       : 0.096
  31. Stream size                              : 5.09 GiB (87%)
  32. Writing library                          : x265 2.6+14-f09f3b4a2115:[Windows][MSVC 1912][64 bit] 10bit
  33. Encoding settings                        : cpuid=533541173503 / frame-threads=2 / numa-pools=4 / wpp / no-pmode / no-pme / no-psnr / no-ssim / log-level=2 / input-csp=1 / input-res=1792x1080 / interlace=0 / total-frames=0 / level-idc=0 / high-tier=1 / uhd-bd=0 / ref=5 / no-allow-non-conformance / no-repeat-headers / annexb / no-aud / no-hrd / info / hash=0 / no-temporal-layers / no-open-gop / min-keyint=1 / keyint=360 / gop-lookahead=0 / bframes=8 / b-adapt=2 / b-pyramid / bframe-bias=0 / rc-lookahead=60 / lookahead-slices=4 / NTMzNTQ=uuDQuD2mJt9fsCf / scenecut=40 / no-intra-refresh / ctu=32 / min-cu-size=8 / rect / no-amp / max-tu-size=16 / tu-inter-depth=2 / tu-intra-depth=2 / limit-tu=4 / rdoq-level=1 / dynamic-rd=0.00 / ssim-rd / signhide / no-tskip / nr-intra=0 / nr-inter=0 / no-constrained-intra / no-strong-intra-smoothing / max-merge=3 / limit-refs=2 / limit-modes / me=3 / subme=5 / merange=25 / temporal-mvp / weightp / weightb / no-analyze-src-pics / deblock=-1:-1 / no-sao / no-sao-non-deblock / rd=4 / no-early-skip / rskip / no-fast-intra / no-tskip-fast / no-cu-lossless / b-intra / no-splitrd-skip / rdpenalty=1 / psy-rd=0.00 / psy-rdoq=5.00 / no-rd-refine / analysis-reuse-mode=0 / no-lossless / cbqpoffs=-2 / crqpoffs=-2 / rc=crf / crf=19.0 / qcomp=0.65 / qpstep=4 / stats-write=0 / stats-read=0 / ipratio=1.40 / pbratio=1.30 / aq-mode=2 / aq-strength=0.80 / cutree / zone-count=0 / no-strict-cbr / qg-size=16 / no-rc-grain / qpmax=69 / qpmin=0 / no-const-vbv / sar=0 / overscan=0 / videoformat=5 / range=0 / colorprim=1 / transfer=2 / colormatrix=2 / chromaloc=0 / display-window=0 / max-cll=0,0 / min-luma=0 / max-luma=1023 / log2-max-poc-lsb=8 / vui-timing-info / vui-hrd-info / slices=1 / no-opt-qp-pps / no-opt-ref-list-length-pps / no-multi-pass-opt-rps / scenecut-bias=0.05 / no-opt-cu-delta-qp / no-aq-motion / no-hdr / no-hdr-opt / no-dhdr10-opt / analysis-reuse-level=5 / scale-factor=0 / refine-intra=0 / refine-inter=0 / refine-mv=0 / no-limit-sao / ctu-info=0 / no-lowpass-dct / refine-mv-type=0 / copy-pic=1
  34. Language                                 : Japanese
  35. Default                                  : Yes
  36. Forced                                   : No
  37. Color range                              : Limited
  38. Color primaries                          : BT.709

  39. Audio
  40. ID                                       : 2
  41. Format                                   : AC-3
  42. Format/Info                              : Audio Coding 3
  43. Commercial name                          : Dolby Digital
  44. Codec ID                                 : A_AC3
  45. Duration                                 : 2 h 44 min
  46. Bit rate mode                            : Constant
  47. Bit rate                                 : 640 kb/s
  48. Channel(s)                               : 6 channels
  49. Channel layout                           : L R C LFE Ls Rs
  50. Sampling rate                            : 48.0 kHz
  51. Frame rate                               : 31.250 FPS (1536 SPF)
  52. Compression mode                         : Lossy
  53. Stream size                              : 752 MiB (13%)
  54. Language                                 : Japanese
  55. Service kind                             : Complete Main
  56. Default                                  : Yes
  57. Forced                                   : No

  58. Text #1
  59. ID                                       : 3
  60. Format                                   : ASS
  61. Codec ID                                 : S_TEXT/ASS
  62. Codec ID/Info                            : Advanced Sub Station Alpha
  63. Duration                                 : 2 h 42 min
  64. Bit rate                                 : 63 b/s
  65. Count of elements                        : 1563
  66. Compression mode                         : Lossless
  67. Stream size                              : 75.8 KiB (0%)
  68. Title                                    : 简体字幕
  69. Language                                 : Chinese
  70. Default                                  : Yes
  71. Forced                                   : No

  72. Text #2
  73. ID                                       : 4
  74. Format                                   : ASS
  75. Codec ID                                 : S_TEXT/ASS
  76. Codec ID/Info                            : Advanced Sub Station Alpha
  77. Duration                                 : 2 h 42 min
  78. Bit rate                                 : 63 b/s
  79. Count of elements                        : 1563
  80. Compression mode                         : Lossless
  81. Stream size                              : 75.8 KiB (0%)
  82. Title                                    : 繁体字幕
  83. Language                                 : Chinese
  84. Default                                  : No
  85. Forced                                   : No

  86. Menu
  87. 00:00:00.000                             : en:00:00:00.000
  88. 00:17:48.234                             : en:00:17:48.234
  89. 00:37:12.814                             : en:00:37:12.814
  90. 00:54:30.893                             : en:00:54:30.893
  91. 01:09:07.560                             : en:01:09:07.560
  92. 01:29:25.694                             : en:01:29:25.694
  93. 01:47:30.944                             : en:01:47:30.944
  94. 02:05:47.415                             : en:02:05:47.415
  95. 02:19:14.346                             : en:02:19:14.346
  96. 02:37:45.289                             : en:02:37:45.289
  97. 02:42:56.767                             : en:02:42:56.767




下载地址:

Wilderness.Part.One.2017.BluRay.1080p.x265.10bit-MiniHD.torrent

BT9527电影天堂 1、BT9527电影天堂提供的BT文件均来源于互联网抓取,只供网友学习交流、技术提升使用。
2、我们遵守BitTorrent点对点协议原则,任何版权问题请联系原资源发布商,我们不处理任何版权纠纷,谢谢!如有争议请联系邮箱:BT9527#hotmail.com(#换成@)
3、如果您发现某页面或地址有错误,请联系站长邮箱BT9527#hotmail.com(#换成@),我们会尽快处理。您的热心是对BT9527电影天堂最大的支持。
4、本站建议去正规影院观看电影以支持电影行业发展。
最新回复 (0)

你可以在 登录 or 注册 后,对此帖发表评论!

返回
发新帖