古墓丽影[国英多音轨/中英字幕].Lara.Croft.Tomb.Raider.2001.BluRay.1080p.x265.10bit.2Audio-MiniHD 5.02GB

版主小s 2月前 154

✔资源类型:暂未分类   ✔电影年份:更 早   ✔电影地区:欧美   ✔电影分类:动作

◎标  题 古墓丽影
◎译  名 盗墓者罗拉(港) / 古墓奇兵(台)
◎片  名 Lara Croft: Tomb Raider
◎年  代 2001
◎产  地 美国 / 英国 / 日本 / 德国
◎类  别 动作 / 冒险
◎语  言 英语
◎上映日期 2001-06-15(美国)
◎IMDb评分 5.8/10 (204941人评价)
◎IMDb链接 https://www.imdb.com/title/tt0146316/
◎豆瓣评分 7.1/10 (125633人评价)
◎豆瓣链接 https://movie.douban.com/subject/1293173/
◎片  长 100分钟
◎导  演 西蒙·韦斯特 Simon West
◎编  剧 Sara B. Cooper Sara B. Cooper
       麦克·韦柏 Mike Werb
       迈克尔·科拉里 Michael Colleary
       西蒙·韦斯特 Simon West
       约翰·津曼 John Zinman
       派屈克·马塞特 Patrick Massett
◎演  员 安吉丽娜·朱莉 Angelina Jolie
       丹尼尔·克雷格 Daniel Craig
       伊恩·格雷 Iain Glen
       诺亚·泰勒 Noah Taylor
       强·沃特 Jon Voight
       理查德·约翰逊 Richard Johnson
       克里斯·巴里 Chris Barrie
       朱利安·林希德-图特 Julian Rhind-Tutt
       莱斯利·菲利普斯 Leslie Phillips
       Robert Phillips Robert Phillips
       Rachel Appleton Rachel Appleton
       大卫·谢 David Tse
       卡尔·蔡斯 Carl Chase
       奥莱加·费多罗 Olegar Fedoro
       丽琪达·卡里 Richenda Carey
       Sonny Caldinez Sonny Caldinez
       詹姆斯·恩布里 James Embree
       童自荣 Zirong Tong

◎标  签 动作 / 美国 / AngelinaJolie / 冒险 / 科幻 / 古墓丽影 / 美国电影 / 2001

◎简  介
    20年前罗拉(安吉丽娜•朱莉 饰)的父亲(乔恩•沃伊特 饰)挖掘古墓得到的一个箱子里收藏了一个神秘的钟。罗拉从父亲那里知道,这个钟与一个神秘组织有关。这个叫光明会的组织相信当他们找到这个古钟后,便有了把时间与空间打开的钥匙,一把三角形的金属钥匙。多年来该组织一直在苦苦寻觅。 光明会希望通过这把钥匙让他们的组织始祖复活。但首先要找到钥匙。而且时间紧迫,两天后将出现日全蚀。这个时候三角钥匙内在的力量便会达到最大。光明会不想错过这个大好机会。罗拉扛上了这个艰巨的任务,在重重困难中寻找拯救宇宙的三角钥匙。
  1. ##### MediaInfo ######
  2. General
  3. Unique ID                                : 202752230715349749433776137944803635787 (0x9888A8C41F7FCC5AA5E411A9AFFCF24B)
  4. Complete name                            : Lara.Croft.Tomb.Raider.2001.BluRay.1080p.x265.10bit.2Audio-MiniHD.mkv
  5. Format                                   : Matroska
  6. Format version                           : Version 4
  7. File size                                : 5.02 GiB
  8. Duration                                 : 1 h 40 min
  9. Overall bit rate                         : 7 152 kb/s
  10. Encoded date                             : UTC 2016-08-12 07:34:48
  11. Writing application                      : mkvmerge v9.2.0 ('Photograph') 32bit
  12. Writing library                          : libebml v1.3.3 + libmatroska v1.4.4

  13. Video
  14. ID                                       : 1
  15. Format                                   : HEVC
  16. Format/Info                              : High Efficiency Video Coding
  17. Format profile                           : Main 10@L4@Main
  18. Codec ID                                 : V_MPEGH/ISO/HEVC
  19. Duration                                 : 1 h 40 min
  20. Bit rate                                 : 5 922 kb/s
  21. Width                                    : 1 920 pixels
  22. Height                                   : 804 pixels
  23. Display aspect ratio                     : 2.40:1
  24. Frame rate mode                          : Constant
  25. Frame rate                               : 23.976 (24000/1001/53354) FPS
  26. Color space                              : YUV
  27. Chroma subsampling                       : 4:2:0
  28. Bit depth                                : 10 bits
  29. Bits/(Pixel*Frame)                       : 0.160
  30. Stream size                              : 4.16 GiB (83%)
  31. Writing library                          : x265 1.9+229-a932b4366235:[Windows][GCC 5.3.1][64 bit] 10bit
  32. Encoding settings                        : wpp / ctu=32 / min-cu-size=8 / max-tu-size=16 / tu-intra-depth=2 / tu-inter-depth=2 / me=3 / subme=5 / merange=22 / no-rect / no-amp / max-merge=3 / temporal-mvp / no-early-skip / rskip / rdpenalty=1 / no-tskip / no-tskip-fast / no-strong-intra-smoothing / no-lossless / no-cu-lossless / no-constrained-intra / no-fast-intra / no-open-gop / no-temporal-layers / interlace=0 / keyint=360 / min-keyint=1 / NTMzNTQ=uuDQuD2mJt9fsCf / scenecut=40 / rc-lookahead=60 / lookahead-slices=4 / bframes=8 / bframe-bias=0 / b-adapt=2 / ref=5 / limit-refs=3 / limit-modes / weightp / weightb / aq-mode=1 / qg-size=16 / aq-strength=0.90 / cbqpoffs=0 / crqpoffs=0 / rd=4 / psy-rd=0.30 / rdoq-level=1 / psy-rdoq=5.00 / no-rd-refine / signhide / deblock=-1:-1 / no-sao / no-sao-non-deblock / b-pyramid / cutree / no-intra-refresh / rc=crf / crf=21.0 / qcomp=0.75 / qpmin=0 / qpmax=51 / qpstep=4 / ipratio=1.40 / pbratio=1.30
  33. Default                                  : Yes
  34. Forced                                   : No
  35. Color range                              : Limited
  36. Color primaries                          : BT.709

  37. Audio #1
  38. ID                                       : 2
  39. Format                                   : AC-3
  40. Format/Info                              : Audio Coding 3
  41. Commercial name                          : Dolby Digital
  42. Codec ID                                 : A_AC3
  43. Duration                                 : 1 h 40 min
  44. Bit rate mode                            : Constant
  45. Bit rate                                 : 640 kb/s
  46. Channel(s)                               : 6 channels
  47. Channel layout                           : L R C LFE Ls Rs
  48. Sampling rate                            : 48.0 kHz
  49. Frame rate                               : 31.250 FPS (1536 SPF)
  50. Compression mode                         : Lossy
  51. Stream size                              : 460 MiB (9%)
  52. Language                                 : English
  53. Service kind                             : Complete Main
  54. Default                                  : Yes
  55. Forced                                   : No

  56. Audio #2
  57. ID                                       : 3
  58. Format                                   : AC-3
  59. Format/Info                              : Audio Coding 3
  60. Commercial name                          : Dolby Digital
  61. Codec ID                                 : A_AC3
  62. Duration                                 : 1 h 40 min
  63. Bit rate mode                            : Constant
  64. Bit rate                                 : 448 kb/s
  65. Channel(s)                               : 6 channels
  66. Channel layout                           : L R C LFE Ls Rs
  67. Sampling rate                            : 48.0 kHz
  68. Frame rate                               : 31.250 FPS (1536 SPF)
  69. Compression mode                         : Lossy
  70. Delay relative to video                  : 12 ms
  71. Stream size                              : 322 MiB (6%)
  72. Language                                 : Chinese
  73. Service kind                             : Complete Main
  74. Default                                  : No
  75. Forced                                   : No

  76. Text #1
  77. ID                                       : 4
  78. Format                                   : PGS
  79. Muxing mode                              : zlib
  80. Codec ID                                 : S_HDMV/PGS
  81. Codec ID/Info                            : Picture based subtitle format used on BDs/HD-DVDs
  82. Language                                 : English
  83. Default                                  : Yes
  84. Forced                                   : No

  85. Text #2
  86. ID                                       : 5
  87. Format                                   : PGS
  88. Muxing mode                              : zlib
  89. Codec ID                                 : S_HDMV/PGS
  90. Codec ID/Info                            : Picture based subtitle format used on BDs/HD-DVDs
  91. Language                                 : Chinese
  92. Default                                  : No
  93. Forced                                   : No

  94. Menu
  95. 00:00:00.000                             : en:Chapter 01
  96. 00:07:21.857                             : en:Chapter 02
  97. 00:15:03.402                             : en:Chapter 03
  98. 00:23:15.394                             : en:Chapter 04
  99. 00:34:44.707                             : en:Chapter 05
  100. 00:43:09.587                             : en:Chapter 06
  101. 00:50:02.873                             : en:Chapter 07
  102. 00:59:45.164                             : en:Chapter 08
  103. 01:07:52.693                             : en:Chapter 09
  104. 01:15:57.886                             : en:Chapter 10
  105. 01:22:31.321                             : en:Chapter 11
  106. 01:31:21.851                             : en:Chapter 12




下载地址:

Lara.Croft.Tomb.Raider.2001.BluRay.1080p.x265.10bit.2Audio-MiniHD.torrent

BT9527电影天堂 1、BT9527电影天堂提供的BT文件均来源于互联网抓取,只供网友学习交流、技术提升使用。
2、我们遵守BitTorrent点对点协议原则,任何版权问题请联系原资源发布商,我们不处理任何版权纠纷,谢谢!如有争议请联系邮箱:BT9527#hotmail.com(#换成@)
3、如果您发现某页面或地址有错误,请联系站长邮箱BT9527#hotmail.com(#换成@),我们会尽快处理。您的热心是对BT9527电影天堂最大的支持。
4、本站建议去正规影院观看电影以支持电影行业发展。
最新回复 (0)

你可以在 登录 or 注册 后,对此帖发表评论!

返回
发新帖