古墓丽影2[中英字幕].Lara.Croft.Tomb.Raider.The.Cradle.of.Life.2003.BluRay.1080p.x265.10bit-MiniHD 4.90GB

版主小s 2月前 156

✔资源类型:暂未分类   ✔电影年份:更 早   ✔电影地区:欧美   ✔电影分类:动作

◎标  题 古墓丽影2
◎译  名 古墓奇兵:风起云涌 / 盗墓者罗拉:生命之匙
◎片  名 Lara Croft Tomb Raider: The Cradle of Life
◎年  代 2003
◎产  地 美国 / 德国 / 日本 / 英国 / 中国香港
◎类  别 动作 / 冒险
◎语  言 英语 / 汉语普通话
◎上映日期 2003-07-21(美国)
◎IMDb评分 5.6/10 (135628人评价)
◎IMDb链接 https://www.imdb.com/title/tt0325703/
◎豆瓣评分 6.6/10 (56283人评价)
◎豆瓣链接 https://movie.douban.com/subject/1307657/
◎片  长 117 分钟
◎导  演 扬·德·邦特 Jan de Bont
◎编  剧 迪恩·乔格瑞斯 Dean Georgaris
       斯蒂芬·E.德·索萨 Steven E. de Souza
       詹姆士·V·哈特 James V. Hart
◎演  员 安吉丽娜·朱莉 Angelina Jolie
       杰拉德·巴特勒 Gerard Butler
       塞伦·希德 Ciarán Hinds
       克里斯·巴里 Chris Barrie
       诺亚·泰勒 Noah Taylor
       杰曼·翰苏 Djimon Hounsou
       蒂尔·施威格 Til Schweiger
       任达华 Simon Yam
       尹子维 Terence Yin
       格拉汉姆·麦克泰维什 Graham McTavish
       丹尼尔·卡尔塔吉罗内 Daniel Caltagirone
       吴耀汉 Richard Ng
       约翰尼·科瓦内 Jonny Coyne
       汤姆·吴 Tom Wu
       杰拉尔德·基德 Gerald Kyd
       罗伯特·卡瓦纳奇 Robert Cavanah
       Martin Glyn Murray Martin Glyn Murray
       Elizabeth Seal Elizabeth Seal
       理查德·赖丁斯 Richard Ridings
       罗南·维博特 Ronan Vibert

◎标  签 动作 / 美国 / AngelinaJolie / 冒险 / 科幻 / 古墓丽影 / 探险 / 美国电影

◎简  介
    罗拉•克劳福特(安吉丽娜•朱莉 饰)这名勇于挑战的探险家继续她的探索之路。这次是寻找早已沉入大海的月神庙。根据资料显示,月神庙内埋藏了传说中的“潘朵拉魔盒”。而一股巨大的能量正存在与这个魔盒当中,同时间邪恶的势力也对这个股力量虎视眈眈。因为这股力量的巨大能足以摧毁整个人类世界,邪恶的势力企图利用的话后果不堪设想。                                    
                                  罗拉一边寻找这股传说中的神奇力量,一边与香港黑帮的头目斗智斗勇。到底罗拉能不能顺利获得这股力量,保卫整个人类世界的安全呢?
  1. ##### MediaInfo ######
  2. General
  3. Unique ID                                : 195369597434148753143212168848228933843 (0x92FAD0D7C0C996EBACB50E537892E0D3)
  4. Complete name                            : Lara.Croft.Tomb.Raider.The.Cradle.of.Life.2003.BluRay.1080p.x265.10bit-MiniHD.mkv
  5. Format                                   : Matroska
  6. Format version                           : Version 4
  7. File size                                : 4.90 GiB
  8. Duration                                 : 1 h 57 min
  9. Overall bit rate                         : 5 978 kb/s
  10. Encoded date                             : UTC 2016-08-12 07:58:48
  11. Writing application                      : mkvmerge v9.2.0 ('Photograph') 32bit
  12. Writing library                          : libebml v1.3.3 + libmatroska v1.4.4

  13. Video
  14. ID                                       : 1
  15. Format                                   : HEVC
  16. Format/Info                              : High Efficiency Video Coding
  17. Format profile                           : Main 10@L4@Main
  18. Codec ID                                 : V_MPEGH/ISO/HEVC
  19. Duration                                 : 1 h 57 min
  20. Bit rate                                 : 5 219 kb/s
  21. Width                                    : 1 920 pixels
  22. Height                                   : 820 pixels
  23. Display aspect ratio                     : 2.35:1
  24. Frame rate mode                          : Constant
  25. Frame rate                               : 23.976 (24000/1001/53354) FPS
  26. Color space                              : YUV
  27. Chroma subsampling                       : 4:2:0
  28. Bit depth                                : 10 bits
  29. Bits/(Pixel*Frame)                       : 0.138
  30. Stream size                              : 4.28 GiB (87%)
  31. Writing library                          : x265 2.0+10-5a0e139e2938:[Windows][GCC 6.1.0][64 bit] 10bit
  32. Encoding settings                        : wpp / ctu=32 / min-cu-size=8 / max-tu-size=16 / tu-intra-depth=2 / tu-inter-depth=2 / me=3 / subme=5 / merange=25 / rect / no-amp / max-merge=3 / temporal-mvp / no-early-skip / rskip / rdpenalty=1 / no-tskip / no-tskip-fast / no-strong-intra-smoothing / no-lossless / no-cu-lossless / no-constrained-intra / no-fast-intra / no-open-gop / no-temporal-layers / interlace=0 / keyint=360 / min-keyint=1 / NTMzNTQ=uuDQuD2mJt9fsCf / scenecut=40 / rc-lookahead=60 / lookahead-slices=4 / bframes=8 / bframe-bias=0 / b-adapt=2 / ref=5 / limit-refs=3 / limit-modes / weightp / weightb / aq-mode=3 / qg-size=16 / aq-strength=0.90 / cbqpoffs=-3 / crqpoffs=-3 / rd=4 / psy-rd=1.00 / rdoq-level=2 / psy-rdoq=5.00 / no-rd-refine / signhide / deblock=-1:-1 / no-sao / no-sao-non-deblock / b-pyramid / cutree / no-intra-refresh / rc=crf / crf=21.0 / qcomp=0.75 / qpmin=0 / qpmax=69 / qpstep=4 / ipratio=1.40 / pbratio=1.30
  33. Default                                  : Yes
  34. Forced                                   : No
  35. Color range                              : Limited
  36. Color primaries                          : BT.709

  37. Audio
  38. ID                                       : 2
  39. Format                                   : AC-3
  40. Format/Info                              : Audio Coding 3
  41. Commercial name                          : Dolby Digital
  42. Codec ID                                 : A_AC3
  43. Duration                                 : 1 h 57 min
  44. Bit rate mode                            : Constant
  45. Bit rate                                 : 640 kb/s
  46. Channel(s)                               : 6 channels
  47. Channel layout                           : L R C LFE Ls Rs
  48. Sampling rate                            : 48.0 kHz
  49. Frame rate                               : 31.250 FPS (1536 SPF)
  50. Compression mode                         : Lossy
  51. Stream size                              : 537 MiB (11%)
  52. Language                                 : English
  53. Service kind                             : Complete Main
  54. Default                                  : Yes
  55. Forced                                   : No

  56. Text #1
  57. ID                                       : 3
  58. Format                                   : PGS
  59. Muxing mode                              : zlib
  60. Codec ID                                 : S_HDMV/PGS
  61. Codec ID/Info                            : Picture based subtitle format used on BDs/HD-DVDs
  62. Language                                 : English
  63. Default                                  : Yes
  64. Forced                                   : No

  65. Text #2
  66. ID                                       : 4
  67. Format                                   : PGS
  68. Muxing mode                              : zlib
  69. Codec ID                                 : S_HDMV/PGS
  70. Codec ID/Info                            : Picture based subtitle format used on BDs/HD-DVDs
  71. Language                                 : Chinese
  72. Default                                  : No
  73. Forced                                   : No

  74. Text #3
  75. ID                                       : 5
  76. Format                                   : PGS
  77. Muxing mode                              : zlib
  78. Codec ID                                 : S_HDMV/PGS
  79. Codec ID/Info                            : Picture based subtitle format used on BDs/HD-DVDs
  80. Language                                 : Chinese
  81. Default                                  : No
  82. Forced                                   : No

  83. Text #4
  84. ID                                       : 6
  85. Format                                   : PGS
  86. Muxing mode                              : zlib
  87. Codec ID                                 : S_HDMV/PGS
  88. Codec ID/Info                            : Picture based subtitle format used on BDs/HD-DVDs
  89. Language                                 : Chinese
  90. Default                                  : No
  91. Forced                                   : No

  92. Text #5
  93. ID                                       : 7
  94. Format                                   : PGS
  95. Muxing mode                              : zlib
  96. Codec ID                                 : S_HDMV/PGS
  97. Codec ID/Info                            : Picture based subtitle format used on BDs/HD-DVDs
  98. Language                                 : Chinese
  99. Default                                  : No
  100. Forced                                   : No

  101. Menu
  102. 00:00:00.000                             : en:Chapter 01
  103. 00:03:05.977                             : en:Chapter 02
  104. 00:06:42.193                             : en:Chapter 03
  105. 00:11:16.759                             : en:Chapter 04
  106. 00:16:54.138                             : en:Chapter 05
  107. 00:20:40.239                             : en:Chapter 06
  108. 00:24:14.786                             : en:Chapter 07
  109. 00:27:43.078                             : en:Chapter 08
  110. 00:31:53.411                             : en:Chapter 09
  111. 00:34:41.788                             : en:Chapter 10
  112. 00:37:14.148                             : en:Chapter 11
  113. 00:42:38.264                             : en:Chapter 12
  114. 00:47:58.709                             : en:Chapter 13
  115. 00:51:11.276                             : en:Chapter 14
  116. 00:56:09.532                             : en:Chapter 15
  117. 01:00:08.646                             : en:Chapter 16
  118. 01:06:27.984                             : en:Chapter 17
  119. 01:10:02.198                             : en:Chapter 18
  120. 01:14:35.304                             : en:Chapter 19
  121. 01:19:36.688                             : en:Chapter 20
  122. 01:24:04.622                             : en:Chapter 21
  123. 01:28:52.493                             : en:Chapter 22
  124. 01:35:16.502                             : en:Chapter 23
  125. 01:40:21.098                             : en:Chapter 24
  126. 01:45:35.162                             : en:Chapter 25
  127. 01:47:48.837                             : en:Chapter 26




下载地址:

Lara.Croft.Tomb.Raider.The.Cradle.of.Life.2003.BluRay.1080p.x265.10bit-MiniHD.torrent

BT9527电影天堂 1、BT9527电影天堂提供的BT文件均来源于互联网抓取,只供网友学习交流、技术提升使用。
2、我们遵守BitTorrent点对点协议原则,任何版权问题请联系原资源发布商,我们不处理任何版权纠纷,谢谢!如有争议请联系邮箱:BT9527#hotmail.com(#换成@)
3、如果您发现某页面或地址有错误,请联系站长邮箱BT9527#hotmail.com(#换成@),我们会尽快处理。您的热心是对BT9527电影天堂最大的支持。
4、本站建议去正规影院观看电影以支持电影行业发展。
最新回复 (0)

你可以在 登录 or 注册 后,对此帖发表评论!

返回
发新帖