史密斯夫妇[国英多音轨/中英字幕].Mr.and.Mrs.Smith.2005.BluRay.1080p.x265.10bit.2Audio-MiniHD 4.77GB

版主小s 2月前 193

✔资源类型:暂未分类   ✔电影年份:更 早   ✔电影地区:欧美   ✔电影分类:喜剧

◎标  题 史密斯夫妇
◎译  名 史密斯行动 / 史密夫决战史密妻(港) / 史密斯任务(台) / 史密夫对史密妻 / 史密斯交锋 / 床中谍(豆友译名)
◎片  名 Mr. & Mrs. Smith
◎年  代 2005
◎产  地 美国
◎类  别 喜剧 / 动作 / 爱情
◎语  言 英语 / 西班牙语
◎上映日期 2005-07-08(中国大陆) / 2005-06-07(加州首映) / 2005-06-10(美国)
◎IMDb评分 6.5/10 (472529人评价)
◎IMDb链接 https://www.imdb.com/title/tt0356910/
◎豆瓣评分 7.8/10 (426588人评价)
◎豆瓣链接 https://movie.douban.com/subject/1309199/
◎片  长 120分钟
◎导  演 道格·里曼 Doug Liman
◎编  剧 西蒙·金伯格 Simon Kinberg
◎演  员 布拉德·皮特 Brad Pitt
       安吉丽娜·朱莉 Angelina Jolie
       文斯·沃恩 Vince Vaughn
       亚当·布罗迪 Adam Brody
       凯丽·华盛顿 Kerry Washington
       凯斯·大卫 Keith David
       克里斯·韦兹 Chris Weitz
       瑞秋·亨特利 Rachael Huntley
       米歇尔·莫纳汉 Michelle Monaghan
       斯蒂芬妮·玛奇 Stephanie March
       詹妮弗·莫里森 Jennifer Morrison
       特蕊萨·巴雷拉 Theresa Barrera
       佩瑞·里维斯 Perrey Reeves
       梅兰妮·托尔伯特 Melanie Tolbert
       杰瑞·T·亚当斯 Jerry T. Adams
       罗恩·博蒂塔 Ron Bottitta
       玛丽·斯奇塔姆 Maree Cheatham
       诺亚·达尔 Noah Dahl
       克里斯·丹尼尔斯 Chris Daniels
       帕特里卡·达博 Patrika Darbo
       特雷西·迪奥里奥 Tyce Diorio
       格雷格·埃利斯 Greg Ellis
       梅根·加拉格尔 Megan Gallagher
       艾米·海瑟薇 Amy Hathaway
       拉维尔·伊斯亚诺夫 Ravil Isyanov
       马克·伊瓦涅 Mark Ivanir
       西蒙·金伯格 Simon Kinberg
       德仁·莱罗伊 Deren LeRoy
       肖恩·马洪 Sean Mahon
       乔丹·奥谢尔 Jordan Osher
       伦纳德·罗宾逊 Leonard Robinson
       费利克斯·A·鲁伊斯 Felix A. Ruiz
       萨姆·萨巴 Sam Sabbah
       迈克尔-约翰·沃尔夫 Michael-John Wolfe
       杰夫·雅格 Jeff Yagher
       梅利莎·赫利 Melissa Hurley
       杰姬·兰德拉姆 Jacqui Landrum
       马克·巴巴 Mark Barba
       安吉拉·贝塞特 Angela Bassett
       威廉·菲克纳 William Fichtner
       Shilo Frontierro Shilo Frontierro
       路易斯·华雷斯 Luis Juarez
       托尼·隆哥 Tony Longo
        Bill Viney
       Seth T. Walker Seth T. Walker
       R·J·杜雷尔 R.J. Durell
       阿齐瓦·高斯曼 Akiva Goldsman
       阿诺恩·米尔坎 Arnon Milchan
       约翰·鲍威尔 John Powell
       波扬·巴泽里 Bojan Bazelli
       迈克尔·特罗尼克 Michael Tronick
       约瑟夫·米德尔顿 Joseph Middleton
       Michelle Morris Michelle Morris
       吉迪恩·拉夫 Gideon Raff
       Keith Neely Keith Neely
       大卫·桑德弗 David Sandefur
       维克多·J·佐尔福 Victor J. Zolfo
       杰夫·曼恩 Jeff Mann
       迈克尔·卡普兰 Michael Kaplan
       琼·安·布兰克 Jean Ann Black
       Jeri Baker Jeri Baker
       Bill Myer Bill Myer
       Karen Westerfield Karen Westerfield
       黛博拉·拉·米亚·德内弗 Deborah La Mia Denaver
       科林·贾米森 Colin Jamison
       Beth Miller Beth Miller
       Michael F. Blake Michael F. Blake
       Heather Plott Heather Plott
       比尔·博普 Bill Purple
       米克·罗杰斯 Mic Rodgers
       Douglas Plasse Douglas Plasse
       Conte Matal Conte Matal
       Nick Satriano Nick Satriano
       拉斯·P·温特 Lars P. Winther
       西蒙·克雷恩 Simon Crane
       Mike Makara Mike Makara
       格雷格·阿瑟尔斯 Greg Astles
       吉姆·戈尔曼 Jim Gorman
       Greg Groenekamp Greg Groenekamp
       Mike Hardison Mike Hardison
       Peter Hunt Peter Hunt
       Scott Gordon Scott Gordon
       雷·麦金太尔 Ray McIntyre Jr.
       克里斯·戴尔·康特 Chris Del Conte
       Paul Griffin Paul Griffin
       达西·里诺 Darcy Reno
       吉姆·麦克斯韦 Jim Maxwell
       戴维·戈德史密斯 David Goldsmith
       安德鲁·罗伯茨 Andrew Roberts
       Daniel Toscano Daniel Toscano
       特里西亚·亨利·阿什福德 Tricia Henry Ashford
       鲁平·苏万纳特 Rpin Suwannath
       James Coulter James Coulter
       胡安·卡洛斯·巴尔加斯 Juan Carlos Vargas
       杰罗姆·莫林 Jerome Morin
       迈克尔·乔伊斯 Michael Joyce
       罗恩·克拉布 Ron Crabb
       班诺特·吉拉尔 Benoit Girard
       汤米·陈 Tommy Tran
       列夫·科洛博夫 Lev Kolobov
       David Dozoretz David Dozoretz
       塔米·萨顿 Tammy Sutton
       菲利普·摩西 Phillip Moses
       洛恩·莫尔纳 Lon Molnar
       Justin Mitchell Justin Mitchell
       埃里克·布鲁威勒 Erik Bruhwiler
       大卫·埃布纳 David Ebner
       菲·陈 Phi Tran
       詹森·拉尼尔·布朗 Jason Lanier Brown

◎标  签 动作 / 美国 / 爱情 / 特工 / 喜剧 / 经典 / 2005 / 欧美

◎简  介
  约翰(布拉德•皮特 Brad Pitt 饰)和简(安吉丽娜•朱莉 Angelina Jolie  饰)已经结婚了7年多,生活就像淡水般无味。婚姻就像坟墓,让他们过着死水一潭的生活。然而这仅仅是表象。背后他们各有刺激惊险的职业——约翰和简分属两个不同的秘密杀手机构,但彼此却不知道对方的职业身份。直到他们同时接到一个任务,刺杀目标竟是同一人。身份的真相才开始慢慢揭开。                                    
                                反复的试探和猜测,简终于不小心说穿了自己身份。于是一场同室操戈不可避免的发生了。但是他们也开始意识到,自己只是组织的一个棋子。而眼前的,是共同生活了7年的爱人。
  1. ##### MediaInfo ######
  2. General
  3. Unique ID                                : 198441827496840227684458686186720617861 (0x954A817AC4128CD0BC73233045EC6585)
  4. Complete name                            : Mr.and.Mrs.Smith.2005.BluRay.1080p.x265.10bit.2Audio-MiniHD.mkv
  5. Format                                   : Matroska
  6. Format version                           : Version 4
  7. File size                                : 4.77 GiB
  8. Duration                                 : 1 h 59 min
  9. Overall bit rate                         : 5 688 kb/s
  10. Encoded date                             : UTC 2017-02-04 06:54:21
  11. Writing application                      : mkvmerge v9.7.1 ('Pandemonium') 64bit
  12. Writing library                          : libebml v1.3.4 + libmatroska v1.4.5

  13. Video
  14. ID                                       : 1
  15. Format                                   : HEVC
  16. Format/Info                              : High Efficiency Video Coding
  17. Format profile                           : Main 10@L4@Main
  18. Codec ID                                 : V_MPEGH/ISO/HEVC
  19. Duration                                 : 1 h 59 min
  20. Bit rate                                 : 4 567 kb/s
  21. Width                                    : 1 920 pixels
  22. Height                                   : 816 pixels
  23. Display aspect ratio                     : 2.35:1
  24. Frame rate mode                          : Constant
  25. Frame rate                               : 23.976 (24000/1001/53354) FPS
  26. Color space                              : YUV
  27. Chroma subsampling                       : 4:2:0
  28. Bit depth                                : 10 bits
  29. Bits/(Pixel*Frame)                       : 0.122
  30. Stream size                              : 3.83 GiB (80%)
  31. Writing library                          : x265 2.2+22-20217c8af8ac:[Windows][GCC 6.2.0][64 bit] 10bit
  32. Encoding settings                        : cpuid=533541173503 / frame-threads=6 / numa-pools=36 / wpp / no-pmode / no-pme / no-psnr / no-ssim / log-level=2 / input-csp=1 / input-res=1920x816 / interlace=0 / total-frames=172618 / level-idc=0 / high-tier=1 / uhd-bd=0 / ref=5 / no-allow-non-conformance / no-repeat-headers / annexb / no-aud / no-hrd / info / hash=0 / no-temporal-layers / no-open-gop / min-keyint=1 / keyint=360 / bframes=8 / b-adapt=2 / b-pyramid / bframe-bias=0 / rc-lookahead=60 / lookahead-slices=4 / NTMzNTQ=uuDQuD2mJt9fsCf / scenecut=40 / no-intra-refresh / ctu=32 / min-cu-size=8 / rect / no-amp / max-tu-size=16 / tu-inter-depth=2 / tu-intra-depth=2 / limit-tu=0 / rdoq-level=2 / signhide / no-tskip / nr-intra=0 / nr-inter=0 / no-constrained-intra / no-strong-intra-smoothing / max-merge=3 / limit-refs=3 / limit-modes / me=3 / subme=5 / merange=25 / temporal-mvp / weightp / weightb / no-analyze-src-pics / deblock=-1:-1 / no-sao / no-sao-non-deblock / rd=4 / no-early-skip / rskip / no-fast-intra / no-tskip-fast / no-cu-lossless / b-intra / rdpenalty=1 / psy-rd=2.00 / psy-rdoq=5.00 / no-rd-refine / analysis-mode=0 / no-lossless / cbqpoffs=-1 / crqpoffs=-1 / rc=crf / crf=21.0 / qcomp=0.70 / qpstep=4 / stats-write=0 / stats-read=0 / ipratio=1.40 / pbratio=1.30 / aq-mode=3 / aq-strength=0.90 / cutree / zone-count=0 / no-strict-cbr / qg-size=16 / no-rc-grain / qpmax=69 / qpmin=0 / sar=0 / overscan=0 / videoformat=5 / range=0 / colorprim=1 / transfer=2 / colormatrix=2 / chromaloc=0 / display-window=0 / max-cll=0,0 / min-luma=0 / max-luma=1023 / log2-max-poc-lsb=8 / vui-timing-info / vui-hrd-info / slices=1 / opt-qp-pps / opt-ref-list-length-pps / no-multi-pass-opt-rps / scenecut-bias=0.05 / no-opt-cu-delta-qp / no-aq-motion
  33. Default                                  : Yes
  34. Forced                                   : No
  35. Color range                              : Limited
  36. Color primaries                          : BT.709

  37. Audio #1
  38. ID                                       : 2
  39. Format                                   : AC-3
  40. Format/Info                              : Audio Coding 3
  41. Commercial name                          : Dolby Digital
  42. Codec ID                                 : A_AC3
  43. Duration                                 : 1 h 59 min
  44. Bit rate mode                            : Constant
  45. Bit rate                                 : 640 kb/s
  46. Channel(s)                               : 6 channels
  47. Channel layout                           : L R C LFE Ls Rs
  48. Sampling rate                            : 48.0 kHz
  49. Frame rate                               : 31.250 FPS (1536 SPF)
  50. Compression mode                         : Lossy
  51. Stream size                              : 549 MiB (11%)
  52. Language                                 : English
  53. Service kind                             : Complete Main
  54. Default                                  : Yes
  55. Forced                                   : No

  56. Audio #2
  57. ID                                       : 3
  58. Format                                   : AC-3
  59. Format/Info                              : Audio Coding 3
  60. Commercial name                          : Dolby Digital
  61. Codec ID                                 : A_AC3
  62. Duration                                 : 1 h 59 min
  63. Bit rate mode                            : Constant
  64. Bit rate                                 : 448 kb/s
  65. Channel(s)                               : 6 channels
  66. Channel layout                           : L R C LFE Ls Rs
  67. Sampling rate                            : 48.0 kHz
  68. Frame rate                               : 31.250 FPS (1536 SPF)
  69. Compression mode                         : Lossy
  70. Stream size                              : 384 MiB (8%)
  71. Language                                 : Chinese
  72. Service kind                             : Complete Main
  73. Default                                  : No
  74. Forced                                   : No

  75. Text #1
  76. ID                                       : 4
  77. Format                                   : PGS
  78. Muxing mode                              : zlib
  79. Codec ID                                 : S_HDMV/PGS
  80. Codec ID/Info                            : Picture based subtitle format used on BDs/HD-DVDs
  81. Duration                                 : 1 h 59 min
  82. Bit rate                                 : 6 853 b/s
  83. Count of elements                        : 1892
  84. Stream size                              : 5.85 MiB (0%)
  85. Language                                 : English
  86. Default                                  : Yes
  87. Forced                                   : No

  88. Text #2
  89. ID                                       : 5
  90. Format                                   : PGS
  91. Muxing mode                              : zlib
  92. Codec ID                                 : S_HDMV/PGS
  93. Codec ID/Info                            : Picture based subtitle format used on BDs/HD-DVDs
  94. Duration                                 : 1 h 59 min
  95. Bit rate                                 : 8 413 b/s
  96. Count of elements                        : 2522
  97. Stream size                              : 7.18 MiB (0%)
  98. Language                                 : Chinese
  99. Default                                  : No
  100. Forced                                   : No

  101. Text #3
  102. ID                                       : 6
  103. Format                                   : PGS
  104. Muxing mode                              : zlib
  105. Codec ID                                 : S_HDMV/PGS
  106. Codec ID/Info                            : Picture based subtitle format used on BDs/HD-DVDs
  107. Duration                                 : 1 h 59 min
  108. Bit rate                                 : 6 866 b/s
  109. Count of elements                        : 1778
  110. Stream size                              : 5.86 MiB (0%)
  111. Language                                 : Chinese
  112. Default                                  : No
  113. Forced                                   : No

  114. Text #4
  115. ID                                       : 7
  116. Format                                   : PGS
  117. Muxing mode                              : zlib
  118. Codec ID                                 : S_HDMV/PGS
  119. Codec ID/Info                            : Picture based subtitle format used on BDs/HD-DVDs
  120. Duration                                 : 1 h 59 min
  121. Bit rate                                 : 8 935 b/s
  122. Count of elements                        : 1774
  123. Stream size                              : 7.62 MiB (0%)
  124. Language                                 : Chinese
  125. Default                                  : No
  126. Forced                                   : No

  127. Menu
  128. 00:00:00.000                             : en:Chapter 01
  129. 00:02:05.583                             : en:Chapter 02
  130. 00:03:38.843                             : en:Chapter 03
  131. 00:06:30.431                             : en:Chapter 04
  132. 00:09:08.631                             : en:Chapter 05
  133. 00:14:14.812                             : en:Chapter 06
  134. 00:17:17.244                             : en:Chapter 07
  135. 00:22:51.787                             : en:Chapter 08
  136. 00:25:23.855                             : en:Chapter 09
  137. 00:34:51.130                             : en:Chapter 10
  138. 00:39:28.282                             : en:Chapter 11
  139. 00:44:43.347                             : en:Chapter 12
  140. 00:50:14.428                             : en:Chapter 13
  141. 00:52:56.590                             : en:Chapter 14
  142. 00:56:04.069                             : en:Chapter 15
  143. 01:00:53.566                             : en:Chapter 16
  144. 01:06:00.748                             : en:Chapter 17
  145. 01:07:56.739                             : en:Chapter 18
  146. 01:17:31.438                             : en:Chapter 19
  147. 01:23:58.241                             : en:Chapter 20
  148. 01:29:06.090                             : en:Chapter 21
  149. 01:31:28.524                             : en:Chapter 22
  150. 01:35:49.160                             : en:Chapter 23
  151. 01:41:38.258                             : en:Chapter 24
  152. 01:46:03.148                             : en:Chapter 25
  153. 01:50:02.762                             : en:Chapter 26
  154. 01:51:22.759                             : en:Chapter 27
  155. 01:52:27.574                             : en:Chapter 28




下载地址:

Mr.and.Mrs.Smith.2005.BluRay.1080p.x265.10bit.2Audio-MiniHD.torrent

BT9527电影天堂 1、BT9527电影天堂提供的BT文件均来源于互联网抓取,只供网友学习交流、技术提升使用。
2、我们遵守BitTorrent点对点协议原则,任何版权问题请联系原资源发布商,我们不处理任何版权纠纷,谢谢!如有争议请联系邮箱:BT9527#hotmail.com(#换成@)
3、如果您发现某页面或地址有错误,请联系站长邮箱BT9527#hotmail.com(#换成@),我们会尽快处理。您的热心是对BT9527电影天堂最大的支持。
4、本站建议去正规影院观看电影以支持电影行业发展。
最新回复 (0)

你可以在 登录 or 注册 后,对此帖发表评论!

返回
发新帖