史密斯先生到华盛顿[中英字幕].Mr.Smith.Goes.to.Washington.1939.BluRay.1080p.x265.10bit-MiniHD 7.54GB

版主小s 2月前 133

✔资源类型:暂未分类   ✔电影年份:更 早   ✔电影地区:欧美   ✔电影分类:剧情

◎标  题 史密斯先生到华盛顿
◎译  名 华盛顿政客(港) / 华府风云(台) / 史密斯游美京 / 史密斯先生上美京 / 民主万岁 / Frank Capra's Mr. Smith Goes to Washington
◎片  名 Mr. Smith Goes to Washington
◎年  代 1939
◎产  地 美国
◎类  别 剧情
◎语  言 英语
◎上映日期 1939-10-19
◎IMDb评分 8.1/10 (112262人评价)
◎IMDb链接 https://www.imdb.com/title/tt0031679/
◎豆瓣评分 8.6/10 (9586人评价)
◎豆瓣链接 https://movie.douban.com/subject/1297127/
◎片  长 129 分钟
◎导  演 弗兰克·卡普拉 Frank Capra
◎编  剧 西德尼·巴克曼 Sidney Buchman
◎演  员 詹姆斯·斯图尔特 James Stewart
       琪恩·亚瑟 Jean Arthur
       克劳德·雷恩斯 Claude Rains
       爱德华·阿诺德 Edward Arnold
       托马斯·米切尔 Thomas Mitchell
       波特·霍尔 Porter Hall
       格兰特·米切尔 Grant Mitchell
       露丝·唐纳利 Ruth Donnelly
       爱丝垂德·奥温 Astrid Allwyn
       哈里·凯瑞 Harry Carey
       H.B.沃纳 H.B. Warner
       比尤拉·邦蒂 Beulah Bondi
       盖伊·基比 Guy Kibbee
       尤金·佩里特 Eugene Pallette
       迪米特里·迪奥姆金 Dimitri Tiomkin
       阿尔·克拉克 Al Clark

◎标  签 美国 / 政治 / 励志 / 经典 / JamesStewart / 美国电影 / 1939 / FrankCapra

◎简  介
  美国的一个小镇,Jefferson Smith(詹姆斯·斯图尔特 James Stewart饰)是当地的童子军的首领,深受青少年们的喜爱,被选为新的参议员,来到了华盛顿。遇到了他父亲的老朋友,同为参议员的Joseph Paine(克劳德·雷恩斯 Claude Rains饰),并且迷上了Joseph的漂亮女儿。单纯的Jefferson从来没来过华盛顿,在华盛顿闹了不少笑话,被媒体纷纷取笑。Joseph让Jefferson起草一个提案,并让他的女秘书Clarissa Saunders(琪恩·亚瑟 Jean Arthur 饰)协助Jefferson。然而Jefferson却发现,他的这个所谓参议员不过是其他老谋深算的参议员手中的木偶,他发现了他们一个巨大的阴谋。Jefferson决定以自己单薄的力量来对抗那群人,来改变这个腐败的政治环境。到底他能否成功?史...
  1. ##### MediaInfo ######
  2. General
  3. Unique ID                                : 209391819783659121984244607389641298572 (0x9D8765C801B054D3A3AC38F16601528C)
  4. Complete name                            : Mr.Smith.Goes.to.Washington.1939.BluRay.1080p.x265.10bit-MiniHD.mkv
  5. Format                                   : Matroska
  6. Format version                           : Version 4
  7. File size                                : 7.54 GiB
  8. Duration                                 : 2 h 9 min
  9. Overall bit rate                         : 8 327 kb/s
  10. Encoded date                             : UTC 2017-08-29 02:22:59
  11. Writing application                      : mkvmerge v11.0.0 ('Alive') 64bit
  12. Writing library                          : libebml v1.3.4 + libmatroska v1.4.5

  13. Video
  14. ID                                       : 1
  15. Format                                   : HEVC
  16. Format/Info                              : High Efficiency Video Coding
  17. Codec ID                                 : V_MPEGH/ISO/HEVC
  18. Duration                                 : 2 h 9 min
  19. Bit rate                                 : 7 842 kb/s
  20. Width                                    : 1 480 pixels
  21. Height                                   : 1 080 pixels
  22. Display aspect ratio                     : 1.370
  23. Frame rate mode                          : Constant
  24. Frame rate                               : 23.976 (24000/1001/53354) FPS
  25. Bits/(Pixel*Frame)                       : 0.205
  26. Stream size                              : 7.10 GiB (94%)
  27. Default                                  : Yes
  28. Forced                                   : No

  29. Audio
  30. ID                                       : 2
  31. Format                                   : AC-3
  32. Format/Info                              : Audio Coding 3
  33. Commercial name                          : Dolby Digital
  34. Codec ID                                 : A_AC3
  35. Duration                                 : 2 h 9 min
  36. Bit rate mode                            : Constant
  37. Bit rate                                 : 320 kb/s
  38. Channel(s)                               : 1 channel
  39. Channel layout                           : C
  40. Sampling rate                            : 48.0 kHz
  41. Frame rate                               : 31.250 FPS (1536 SPF)
  42. Compression mode                         : Lossy
  43. Stream size                              : 297 MiB (4%)
  44. Language                                 : English
  45. Service kind                             : Complete Main
  46. Default                                  : Yes
  47. Forced                                   : No

  48. Text #1
  49. ID                                       : 3
  50. Format                                   : PGS
  51. Muxing mode                              : zlib
  52. Codec ID                                 : S_HDMV/PGS
  53. Codec ID/Info                            : Picture based subtitle format used on BDs/HD-DVDs
  54. Language                                 : English
  55. Default                                  : Yes
  56. Forced                                   : No

  57. Text #2
  58. ID                                       : 4
  59. Format                                   : PGS
  60. Muxing mode                              : zlib
  61. Codec ID                                 : S_HDMV/PGS
  62. Codec ID/Info                            : Picture based subtitle format used on BDs/HD-DVDs
  63. Language                                 : Chinese
  64. Default                                  : No
  65. Forced                                   : No

  66. Menu
  67. 00:00:00.000                             : en:Chapter 01
  68. 00:06:16.209                             : en:Chapter 02
  69. 00:14:54.351                             : en:Chapter 03
  70. 00:20:57.589                             : en:Chapter 04
  71. 00:28:58.528                             : en:Chapter 05
  72. 00:34:19.724                             : en:Chapter 06
  73. 00:42:02.311                             : en:Chapter 07
  74. 00:50:23.729                             : en:Chapter 08
  75. 00:59:50.253                             : en:Chapter 09
  76. 01:09:30.332                             : en:Chapter 10
  77. 01:17:28.602                             : en:Chapter 11
  78. 01:24:49.834                             : en:Chapter 12
  79. 01:34:34.502                             : en:Chapter 13
  80. 01:41:41.720                             : en:Chapter 14
  81. 01:51:19.047                             : en:Chapter 15
  82. 02:00:02.862                             : en:Chapter 16




下载地址:

Mr.Smith.Goes.to.Washington.1939.BluRay.1080p.x265.10bit-MiniHD.torrent

BT9527电影天堂 1、BT9527电影天堂提供的BT文件均来源于互联网抓取,只供网友学习交流、技术提升使用。
2、我们遵守BitTorrent点对点协议原则,任何版权问题请联系原资源发布商,我们不处理任何版权纠纷,谢谢!如有争议请联系邮箱:BT9527#hotmail.com(#换成@)
3、如果您发现某页面或地址有错误,请联系站长邮箱BT9527#hotmail.com(#换成@),我们会尽快处理。您的热心是对BT9527电影天堂最大的支持。
4、本站建议去正规影院观看电影以支持电影行业发展。
最新回复 (0)

你可以在 登录 or 注册 后,对此帖发表评论!

返回
发新帖