囚徒[中英字幕].Prisoners.2013.BluRay.1080p.x265.10bit-MiniHD 4.94GB

版主小s 2月前 151

✔资源类型:暂未分类   ✔电影年份:2013   ✔电影地区:欧美   ✔电影分类:剧情

◎标  题 囚徒
◎译  名 罪迷宫(港) / 私法争锋(台)
◎片  名 Prisoners
◎年  代 2013
◎产  地 美国
◎类  别 剧情 / 悬疑 / 犯罪
◎语  言 英语
◎上映日期 2013-08-30(特柳赖德电影节) / 2013-09-20(美国)
◎IMDb评分 8.1/10 (648501人评价)
◎IMDb链接 https://www.imdb.com/title/tt1392214/
◎豆瓣评分 8.1/10 (99127人评价)
◎豆瓣链接 https://movie.douban.com/subject/3592859/
◎片  长 153分钟
◎导  演 丹尼斯·维伦纽瓦 Denis Villeneuve
◎编  剧 亚伦·格兹考斯基 Aaron Guzikowski
◎演  员 休·杰克曼 Hugh Jackman
       杰克·吉伦哈尔 Jake Gyllenhaal
       维奥拉·戴维斯 Viola Davis
       玛丽亚·贝罗 Maria Bello
       泰伦斯·霍华德 Terrence Howard
       梅丽莎·里奥 Melissa Leo
       保罗·达诺 Paul Dano
       迪兰·明奈特 Dylan Minnette
       艾琳·格拉西莫维奇 Erin Gerasimovich
       韦恩·杜瓦尔 Wayne Duvall
       兰·卡琉 Len Cariou
       大卫·达斯马齐连 David Dastmalchian
       布拉德·詹姆斯 Brad James
       安东尼·雷诺兹 Anthony Reynolds
       J·奥马尔·卡斯特罗 J. Omar Castro
       简·麦克尼尔 Jane McNeill
       桑德拉·埃利斯·拉弗蒂 Sandra Ellis Lafferty

◎标  签 悬疑 / 犯罪 / 美国 / 剧情 / 惊悚 / 人性 / 2013 / JakeGyllenhaal

◎简  介
    凯勒(休·杰克曼 Hugh Jackman 饰)是一名木匠,一次意外中,他的女儿安娜(艾琳·格拉西莫维奇 Erin Gerasimovich 饰)同小伙伴乔伊(凯拉·德鲁·西蒙斯 Kyla Drew Simmons 饰)一起莫名失踪。对于女儿遭遇的不测,心急如焚的凯勒向警方寻求帮助,很快,案件的负责人洛基(杰克·吉伦哈尔 Jake Gyllenhaal 饰)就将目标锁定在了一位名叫艾利克斯(保罗·达诺 Paul Dano 饰)的男子身上。                                    
                                  不幸的是,由于证据不足,警方不得不在四十八小时之后释放了艾利克斯,对警方失望透顶的凯勒决定靠自己的力量寻找女儿的踪迹。经验丰富的凯勒亲手捉住了艾利克斯,他希望能够通过武力获取关于女儿的讯息。安娜和乔伊最终能够获救吗?坚称自己无辜的艾利克斯又是否真的就是罪魁祸首呢?
  1. ##### MediaInfo ######
  2. General
  3. Unique ID                                : 201591973719815070273687539952357493385 (0x97A933ADFB827CA28476E2306D8C4A89)
  4. Complete name                            : Prisoners.2013.BluRay.1080p.x265.10bit-MiniHD.mkv
  5. Format                                   : Matroska
  6. Format version                           : Version 4
  7. File size                                : 4.94 GiB
  8. Duration                                 : 2 h 33 min
  9. Overall bit rate                         : 4 617 kb/s
  10. Encoded date                             : UTC 2017-08-16 01:20:03
  11. Writing application                      : mkvmerge v11.0.0 ('Alive') 64bit
  12. Writing library                          : libebml v1.3.4 + libmatroska v1.4.5

  13. Video
  14. ID                                       : 1
  15. Format                                   : HEVC
  16. Format/Info                              : High Efficiency Video Coding
  17. Codec ID                                 : V_MPEGH/ISO/HEVC
  18. Duration                                 : 2 h 33 min
  19. Bit rate                                 : 3 886 kb/s
  20. Width                                    : 1 920 pixels
  21. Height                                   : 1 080 pixels
  22. Display aspect ratio                     : 16:9
  23. Frame rate mode                          : Constant
  24. Frame rate                               : 23.976 (24000/1001/53354) FPS
  25. Bits/(Pixel*Frame)                       : 0.078
  26. Stream size                              : 4.16 GiB (84%)
  27. Default                                  : Yes
  28. Forced                                   : No

  29. Audio
  30. ID                                       : 2
  31. Format                                   : AC-3
  32. Format/Info                              : Audio Coding 3
  33. Commercial name                          : Dolby Digital
  34. Codec ID                                 : A_AC3
  35. Duration                                 : 2 h 33 min
  36. Bit rate mode                            : Constant
  37. Bit rate                                 : 640 kb/s
  38. Channel(s)                               : 6 channels
  39. Channel layout                           : L R C LFE Ls Rs
  40. Sampling rate                            : 48.0 kHz
  41. Frame rate                               : 31.250 FPS (1536 SPF)
  42. Compression mode                         : Lossy
  43. Stream size                              : 701 MiB (14%)
  44. Language                                 : English
  45. Service kind                             : Complete Main
  46. Default                                  : Yes
  47. Forced                                   : No

  48. Text #1
  49. ID                                       : 3
  50. Format                                   : PGS
  51. Muxing mode                              : zlib
  52. Codec ID                                 : S_HDMV/PGS
  53. Codec ID/Info                            : Picture based subtitle format used on BDs/HD-DVDs
  54. Language                                 : English
  55. Default                                  : Yes
  56. Forced                                   : No

  57. Text #2
  58. ID                                       : 4
  59. Format                                   : PGS
  60. Muxing mode                              : zlib
  61. Codec ID                                 : S_HDMV/PGS
  62. Codec ID/Info                            : Picture based subtitle format used on BDs/HD-DVDs
  63. Language                                 : Chinese
  64. Default                                  : No
  65. Forced                                   : No

  66. Text #3
  67. ID                                       : 5
  68. Format                                   : PGS
  69. Muxing mode                              : zlib
  70. Codec ID                                 : S_HDMV/PGS
  71. Codec ID/Info                            : Picture based subtitle format used on BDs/HD-DVDs
  72. Language                                 : Chinese
  73. Default                                  : No
  74. Forced                                   : No

  75. Text #4
  76. ID                                       : 6
  77. Format                                   : PGS
  78. Muxing mode                              : zlib
  79. Codec ID                                 : S_HDMV/PGS
  80. Codec ID/Info                            : Picture based subtitle format used on BDs/HD-DVDs
  81. Language                                 : Chinese
  82. Default                                  : No
  83. Forced                                   : No

  84. Text #5
  85. ID                                       : 7
  86. Format                                   : PGS
  87. Muxing mode                              : zlib
  88. Codec ID                                 : S_HDMV/PGS
  89. Codec ID/Info                            : Picture based subtitle format used on BDs/HD-DVDs
  90. Language                                 : Chinese
  91. Default                                  : No
  92. Forced                                   : No

  93. Menu
  94. 00:00:00.000                             : en:Chapter 01
  95. 00:08:50.780                             : en:Chapter 02
  96. 00:19:52.149                             : en:Chapter 03
  97. 00:30:18.942                             : en:Chapter 04
  98. 00:40:23.838                             : en:Chapter 05
  99. 00:49:36.974                             : en:Chapter 06
  100. 00:59:27.897                             : en:Chapter 07
  101. 01:08:24.725                             : en:Chapter 08
  102. 01:17:29.102                             : en:Chapter 09
  103. 01:29:17.393                             : en:Chapter 10
  104. 01:41:34.797                             : en:Chapter 11
  105. 01:51:36.815                             : en:Chapter 12
  106. 01:59:39.255                             : en:Chapter 13
  107. 02:11:46.690                             : en:Chapter 14
  108. 02:19:50.840                             : en:Chapter 15
  109. 02:25:54.287                             : en:Chapter 16




下载地址:

Prisoners.2013.BluRay.1080p.x265.10bit-MiniHD.torrent

BT9527电影天堂 1、BT9527电影天堂提供的BT文件均来源于互联网抓取,只供网友学习交流、技术提升使用。
2、我们遵守BitTorrent点对点协议原则,任何版权问题请联系原资源发布商,我们不处理任何版权纠纷,谢谢!如有争议请联系邮箱:BT9527#hotmail.com(#换成@)
3、如果您发现某页面或地址有错误,请联系站长邮箱BT9527#hotmail.com(#换成@),我们会尽快处理。您的热心是对BT9527电影天堂最大的支持。
4、本站建议去正规影院观看电影以支持电影行业发展。
最新回复 (0)

你可以在 登录 or 注册 后,对此帖发表评论!

返回
发新帖