后窗[国英多音轨/中英字幕].Rear.Window.1954.BluRay.1080p.x265.10bit.2Audio-MiniHD 5.39GB

版主小s 2月前 172

✔资源类型:暂未分类   ✔电影年份:更 早   ✔电影地区:欧美   ✔电影分类:悬疑

◎标  题 后窗
◎译  名 Alfred Hitchcock's Rear Window / Fenêtre sur cour
◎片  名 Rear Window
◎年  代 1954
◎产  地 美国
◎类  别 悬疑 / 惊悚
◎语  言 英语
◎上映日期 1954-08-01(美国)
◎IMDb评分 8.5/10 (470509人评价)
◎IMDb链接 https://www.imdb.com/title/tt0047396/
◎豆瓣评分 8.6/10 (156460人评价)
◎豆瓣链接 https://movie.douban.com/subject/1299080/
◎片  长 112 分钟
◎导  演 阿尔弗雷德·希区柯克 Alfred Hitchcock
◎编  剧 约翰·迈克尔·海耶斯 John Michael Hayes
       康奈尔·伍尔里奇 Cornell Woolrich
◎演  员 詹姆斯·斯图尔特 James Stewart
       格蕾丝·凯利 Grace Kelly
       温戴尔·柯瑞 Wendell Corey
       瑟尔玛·瑞特 Thelma Ritter
       雷蒙德·布尔 Raymond Burr
       朱迪思·伊夫林 Judith Evelyn
       罗斯·巴格达萨里安 Ross Bagdasarian
       乔金·达西 Georgine Darcy
       萨拉·伯纳 Sara Berner
       弗兰克·卡迪 Frank Cady
       杰丝琳·法克斯 Jesslyn Fax
       艾琳·温斯顿 Irene Winston
       哈维斯·达文波特 Havis Davenport
       本尼·巴莱特 Benny Bartlett
       马拉·英格丽什 Marla English
       贝丝·弗劳尔斯 Bess Flowers
       阿特·吉尔摩 Art Gilmore
       弗莱德·格兰姆 Fred Graham
       凯丝琳·格兰特 Kathryn Grant
       阿尔弗雷德·希区柯克 Alfred Hitchcock
       迈克·马奥尼 Mike Mahoney
       杰克·斯托尼 Jack Stoney
       吉格·杨 Gig Young
       Rand Harper Rand Harper
       Nick Borgani Nick Borgani
       Iphigenie Castiglioni Iphigenie Castiglioni
       Don Dunning Don Dunning
       Harry Landers Harry Landers
       Jonni Paris Jonni Paris
       Eddie Parker Eddie Parker
       罗伯特·舍曼 Robert Sherman
       Dick Simmons Dick Simmons
       Ralph Smiley Ralph Smiley
       Anthony Warde Anthony Warde
       阿尔弗雷德·希区柯克 Alfred Hitchcock
       弗朗茨·沃克斯曼 Franz Waxman
       罗伯特·伯克斯 Robert Burks
       乔治·托马西尼 George Tomasini
       哈尔·佩雷拉 Hal Pereira
       萨姆·库默 Sam Comer
       雷·莫耶 Ray Moyer
       J·麦克米伦·约翰逊 J. McMillan Johnson
       伊迪丝·海德 Edith Head
       沃利·韦斯特摩 Wally Westmore
       赫伯特·科尔曼 Herbert Coleman
       洛伦·L·里德 Loren L. Ryder
       艾尔明·罗伯特 Irmin Roberts
       约翰·P·富尔顿 John P. Fulton

◎标  签 希区柯克 / 悬疑 / 美国 / 经典 / 惊悚 / 美国电影 / 1954 / 犯罪

◎简  介
  摄影师杰弗里斯(詹姆斯·斯图尔特 饰)因站在赛车道中间拍摄,断了左腿,只得在家静养七周。除了保险公司的护士斯特拉(西尔玛·里特 饰)和女友丽莎·卡罗尔·弗里蒙特(格雷斯·凯利 饰)每日前来照料,百无聊赖的杰弗里斯只能在窗前闲看邻居们的日常生活以打发时间。对面公寓的二楼住着人造珠宝推销员拉尔斯·托瓦尔德(雷蒙德·伯尔 饰)及妻子安娜(艾琳·温斯顿 饰),夫妻之间争吵不断。一个雨夜,杰弗里斯看到拉尔斯提着箱子外出数次。次日,杰弗里斯又看到拉尔斯用报纸包裹一把锯和一把刀。杰弗里斯起了疑心,他怀疑拉尔斯杀害了安娜并分尸抛弃。然而,杰弗里斯并未目击案发过程,也未见到尸体。那么真相究竟如何呢?杰弗里斯的推测只是他的臆想吗?为了证实他的推测,杰弗里斯要如何寻找证据呢?
  1. ##### MediaInfo ######
  2. General
  3. Unique ID                                : 210216176740053434909469373408512806372 (0x9E2629B79AA8EDBB9D68DBDA8FBF8DE4)
  4. Complete name                            : Rear.Window.1954.BluRay.1080p.x265.10bit.2Audio-MiniHD.mkv
  5. Format                                   : Matroska
  6. Format version                           : Version 4
  7. File size                                : 5.39 GiB
  8. Duration                                 : 1 h 52 min
  9. Overall bit rate                         : 6 860 kb/s
  10. Encoded date                             : UTC 2017-07-07 05:06:04
  11. Writing application                      : mkvmerge v11.0.0 ('Alive') 64bit
  12. Writing library                          : libebml v1.3.4 + libmatroska v1.4.5

  13. Video
  14. ID                                       : 1
  15. Format                                   : HEVC
  16. Format/Info                              : High Efficiency Video Coding
  17. Codec ID                                 : V_MPEGH/ISO/HEVC
  18. Duration                                 : 1 h 52 min
  19. Bit rate                                 : 6 212 kb/s
  20. Width                                    : 1 790 pixels
  21. Height                                   : 1 080 pixels
  22. Display aspect ratio                     : 5:3
  23. Frame rate mode                          : Constant
  24. Frame rate                               : 23.976 (24000/1001/53354) FPS
  25. Bits/(Pixel*Frame)                       : 0.134
  26. Stream size                              : 4.88 GiB (91%)
  27. Default                                  : Yes
  28. Forced                                   : No

  29. Audio #1
  30. ID                                       : 2
  31. Format                                   : AC-3
  32. Format/Info                              : Audio Coding 3
  33. Commercial name                          : Dolby Digital
  34. Codec ID                                 : A_AC3
  35. Duration                                 : 1 h 52 min
  36. Bit rate mode                            : Constant
  37. Bit rate                                 : 320 kb/s
  38. Channel(s)                               : 2 channels
  39. Channel layout                           : L R
  40. Sampling rate                            : 48.0 kHz
  41. Frame rate                               : 31.250 FPS (1536 SPF)
  42. Compression mode                         : Lossy
  43. Stream size                              : 257 MiB (5%)
  44. Language                                 : English
  45. Service kind                             : Complete Main
  46. Default                                  : Yes
  47. Forced                                   : No

  48. Audio #2
  49. ID                                       : 3
  50. Format                                   : AC-3
  51. Format/Info                              : Audio Coding 3
  52. Commercial name                          : Dolby Digital
  53. Codec ID                                 : A_AC3
  54. Duration                                 : 1 h 52 min
  55. Bit rate mode                            : Constant
  56. Bit rate                                 : 192 kb/s
  57. Channel(s)                               : 2 channels
  58. Channel layout                           : L R
  59. Sampling rate                            : 48.0 kHz
  60. Frame rate                               : 31.250 FPS (1536 SPF)
  61. Compression mode                         : Lossy
  62. Stream size                              : 154 MiB (3%)
  63. Language                                 : Chinese
  64. Service kind                             : Complete Main
  65. Default                                  : No
  66. Forced                                   : No

  67. Text #1
  68. ID                                       : 4
  69. Format                                   : PGS
  70. Muxing mode                              : zlib
  71. Codec ID                                 : S_HDMV/PGS
  72. Codec ID/Info                            : Picture based subtitle format used on BDs/HD-DVDs
  73. Language                                 : English
  74. Default                                  : Yes
  75. Forced                                   : No

  76. Text #2
  77. ID                                       : 5
  78. Format                                   : PGS
  79. Muxing mode                              : zlib
  80. Codec ID                                 : S_HDMV/PGS
  81. Codec ID/Info                            : Picture based subtitle format used on BDs/HD-DVDs
  82. Language                                 : Chinese
  83. Default                                  : No
  84. Forced                                   : No

  85. Text #3
  86. ID                                       : 6
  87. Format                                   : PGS
  88. Muxing mode                              : zlib
  89. Codec ID                                 : S_HDMV/PGS
  90. Codec ID/Info                            : Picture based subtitle format used on BDs/HD-DVDs
  91. Language                                 : Chinese
  92. Default                                  : No
  93. Forced                                   : No

  94. Menu
  95. 00:00:00.000                             : en:Chapter 01
  96. 00:01:36.387                             : en:Chapter 02
  97. 00:08:29.383                             : en:Chapter 03
  98. 00:15:37.895                             : en:Chapter 04
  99. 00:21:26.285                             : en:Chapter 05
  100. 00:27:13.423                             : en:Chapter 06
  101. 00:32:01.210                             : en:Chapter 07
  102. 00:36:38.863                             : en:Chapter 08
  103. 00:43:05.040                             : en:Chapter 09
  104. 00:53:40.425                             : en:Chapter 10
  105. 01:00:52.565                             : en:Chapter 11
  106. 01:12:25.507                             : en:Chapter 12
  107. 01:18:46.221                             : en:Chapter 13
  108. 01:25:06.893                             : en:Chapter 14
  109. 01:37:26.298                             : en:Chapter 15
  110. 01:44:56.081                             : en:Chapter 16
  111. 01:50:35.920                             : en:Chapter 17




下载地址:

Rear.Window.1954.BluRay.1080p.x265.10bit.2Audio-MiniHD.torrent

BT9527电影天堂 1、BT9527电影天堂提供的BT文件均来源于互联网抓取,只供网友学习交流、技术提升使用。
2、我们遵守BitTorrent点对点协议原则,任何版权问题请联系原资源发布商,我们不处理任何版权纠纷,谢谢!如有争议请联系邮箱:BT9527#hotmail.com(#换成@)
3、如果您发现某页面或地址有错误,请联系站长邮箱BT9527#hotmail.com(#换成@),我们会尽快处理。您的热心是对BT9527电影天堂最大的支持。
4、本站建议去正规影院观看电影以支持电影行业发展。
最新回复 (0)

你可以在 登录 or 注册 后,对此帖发表评论!

返回
发新帖