浴火牡丹[国语配音/中文字幕].Bathing.fire.peony.2022.2160p.WEB-DL.DDP2.0.H265-MOMOWEB 1.50GB

版主小s 3月前 376

✔资源类型:4K   ✔电影年份:2022   ✔电影地区:大陆   ✔电影分类:爱情

◎标  题 浴火牡丹
◎年  代 2022
◎产  地 中国大陆
◎类  别 爱情 / 奇幻 / 古装
◎语  言 汉语普通话
◎上映日期 2022-12-01(中国大陆网络)
◎IMDb链接 https://www.imdb.com/title//
◎豆瓣链接 https://movie.douban.com/subject/36172007/
◎导  演 宋海波 Haibo Song
◎演  员 赖雨濛 Yumeng Lai
       贾征宇 ZhengYu Jia
       杨净如 Jingru Yang
       符骞文 Xiang Yun

◎简  介
  百花宴上代花王遥君在众仙眼前暴毙,陆续又有多位仙家被夺寿而亡。传说昆仑山巅有神殿云烟渡可典当一切换取万物,花仙白牡丹为求取真相前往云烟渡,遇到了辟邪神君。冬日开花命令在即,白牡丹不愿屈服逆时开花,遭受天罚,神君化作神兽貔貅吸江河湖海之水灭掉白牡丹身上的天劫雷火,二人因此相恋。白牡丹发现云烟渡的主人竟是一位与自己一模一样的女子,而神君也与此人有着千丝万缕的联系。百花宴上夺寿的真凶也蠢蠢欲动,谋划夺取云烟渡……
  1. ##### MediaInfo ######
  2. General
  3. Unique ID                                : 320666812263171455167784758698104217209 (0xF13E2E7CBD7CE414B4B600158E825E79)
  4. Complete name                            : Bathing.fire.peony.2022.2160p.WEB-DL.DDP2.0.H265-MOMOWEB.mkv
  5. Format                                   : Matroska
  6. Format version                           : Version 4
  7. File size                                : 1.50 GiB
  8. Duration                                 : 1 h 26 min
  9. Overall bit rate                         : 2 496 kb/s
  10. Movie name                               : Bathing.fire.peony.2022.2160p.WEB-DL.DDP2.0.H265-PTerWEB
  11. Encoded date                             : UTC 2022-12-12 10:04:31
  12. Writing application                      : mkvmerge v72.0.0 ('Minuano (Six-eight)') 64-bit
  13. Writing library                          : libebml v1.4.4 + libmatroska v1.7.1

  14. Video
  15. ID                                       : 1
  16. Format                                   : HEVC
  17. Format/Info                              : High Efficiency Video Coding
  18. Format profile                           : Main@L5@Main
  19. Codec ID                                 : V_MPEGH/ISO/HEVC
  20. Duration                                 : 1 h 26 min
  21. Bit rate                                 : 2 238 kb/s
  22. Width                                    : 3 840 pixels
  23. Height                                   : 1 740 pixels
  24. Display aspect ratio                     : 2.2:1
  25. Frame rate mode                          : Constant
  26. Frame rate                               : 24.000 FPS
  27. Color space                              : YUV
  28. Chroma subsampling                       : 4:2:0
  29. Bit depth                                : 8 bits
  30. Bits/(Pixel*Frame)                       : 0.014
  31. Stream size                              : 1.35 GiB (90%)
  32. Default                                  : Yes
  33. Forced                                   : No
  34. Color range                              : Limited
  35. Color primaries                          : BT.709
  36. Transfer characteristics                 : BT.709
  37. Matrix coefficients                      : BT.709

  38. Audio
  39. ID                                       : 2
  40. Format                                   : E-AC-3
  41. Format/Info                              : Enhanced AC-3
  42. Commercial name                          : Dolby Digital Plus
  43. Codec ID                                 : A_EAC3
  44. Duration                                 : 1 h 26 min
  45. Bit rate mode                            : Constant
  46. Bit rate                                 : 256 kb/s
  47. Channel(s)                               : 2 channels
  48. Channel layout                           : L R
  49. Sampling rate                            : 48.0 kHz
  50. Frame rate                               : 31.250 FPS (1536 SPF)
  51. Compression mode                         : Lossy
  52. Stream size                              : 158 MiB (10%)
  53. Language                                 : Chinese
  54. Service kind                             : Complete Main
  55. Default                                  : Yes
  56. Forced                                   : No




下载地址:

Bathing.fire.peony.2022.2160p.WEB-DL.DDP2.0.H265-MOMOWEB.torrent

BT9527电影天堂 1、BT9527电影天堂提供的BT文件均来源于互联网抓取,只供网友学习交流、技术提升使用。
2、我们遵守BitTorrent点对点协议原则,任何版权问题请联系原资源发布商,我们不处理任何版权纠纷,谢谢!如有争议请联系邮箱:BT9527#hotmail.com(#换成@)
3、如果您发现某页面或地址有错误,请联系站长邮箱BT9527#hotmail.com(#换成@),我们会尽快处理。您的热心是对BT9527电影天堂最大的支持。
4、本站建议去正规影院观看电影以支持电影行业发展。
最新回复 (0)

你可以在 登录 or 注册 后,对此帖发表评论!

返回
发新帖