侏罗纪世界3[中文字幕].Jurassic.World.Dominion.2022.EXTENDED.BluRay.1080p.HEVC.10bit-MOMOHD 13.21GB

版主小s 9月前 630

✔资源类型:暂未分类   ✔电影年份:2022   ✔电影地区:欧美   ✔电影分类:动作

◎标  题 侏罗纪世界3
◎译  名 侏罗纪世界3:统治 / 侏罗纪世界:统治霸权(港) / 侏罗纪世界:统霸天下(台) / 侏罗纪公园6 / Jurassic Park 6
◎片  名 Jurassic World: Dominion
◎年  代 2022
◎产  地 美国
◎类  别 动作 / 科幻 / 冒险
◎语  言 英语
◎上映日期 2022-06-10(美国/中国大陆) / 2022-06-01(韩国)
◎IMDb评分 6.4/10 (2331人评价)
◎IMDb链接 https://www.imdb.com/title/tt8041270/
◎豆瓣链接 https://movie.douban.com/subject/26873582/
◎片  长 146分钟
◎导  演 科林·特莱沃若 Colin Trevorrow
◎编  剧 科林·特莱沃若 Colin Trevorrow
       艾米丽·卡迈克尔 Emily Carmichael
       德里克·康纳利 Derek Connolly
       迈克尔·克莱顿 Michael Crichton
◎演  员 克里斯·帕拉特 Chris Pratt
       布莱丝·达拉斯·霍华德 Bryce Dallas Howard
       山姆·尼尔 Sam Neill
       劳拉·邓恩 Laura Dern
       杰夫·高布伦 Jeff Goldblum
       伊莎贝拉·瑟蒙 Isabella Sermon
       马莫多·阿西 Mamoudou Athie
       丹妮艾拉·皮内达 Daniella Pineda
       迪辰·拉克曼 Dichen Lachman
       黄荣亮 B.D. Wong
       克里斯托弗·普拉哈 Kristoffer Polaha
       奥玛·希 Omar Sy
       贾斯蒂斯·史密斯 Justice Smith
       坎贝尔·斯科特 Campbell Scott
       德汪达·怀斯 DeWanda Wise
       斯科特·黑兹 Scott Haze
       Freya Parker Freya Parker
       瓦拉达·塞图 Varada Sethu
       格利尼斯·戴维斯 Glynis Davies
       埃尔娃·崔尔 Elva Trill
       柯基·法尔考 Cokey Falkow
       伯纳多·桑托斯 Bernardo Santos
       迪米特里“维加斯”蒂瓦约 Dimitri 'Vegas' Thivaios
       小恩佐·斯奎利诺 Enzo Squillino Jr.
       特蕾莎·森登·加西亚 Teresa Cendon-Garcia
       杰克·约翰逊 Jake M. Johnson
       乔·阿泽帕迪 Joe Azzopardi
       帕特里克·克劳利 Patrick Crowley
       弗兰克·马歇尔 Frank Marshall
       史蒂文·斯皮尔伯格 Steven Spielberg
       科林·特莱沃若 Colin Trevorrow
       温斯顿·阿佐帕迪 Winston Azzopardi
       迈克·吉亚奇诺 Michael Giacchino
       约翰·施瓦兹曼 John Schwartzman
       马克·桑格 Mark Sanger
       妮娜·古德 Nina Gold
       凯文·詹金斯 Kevin Jenkins
       理查德·罗伯茨 Richard Roberts

◎简  介
  影片为《侏罗纪世界》系列的完结篇,故事的开篇设定在纳布拉尔岛被摧毁的四年后。如今,恐龙在世界各地与人类共同生活、共同捕猎。这一脆弱的平衡将重塑未来,并最终决定人类能否与史上最可怕生物共享这颗星球,并继续站在食物链的顶端。
  1. ##### MediaInfo ######
  2. General
  3. Unique ID                                : 35364297913876559992942612385879798162 (0x1A9AEA81099C2BF059660CB8DC1FB192)
  4. Complete name                            : Jurassic.World.Dominion.2022.EXTENDED.BluRay.1080p.HEVC.10bit-MOMOHD.mkv
  5. Format                                   : Matroska
  6. Format version                           : Version 2
  7. File size                                : 13.2 GiB
  8. Duration                                 : 2 h 40 min
  9. Overall bit rate mode                    : Variable
  10. Overall bit rate                         : 11.8 Mb/s
  11. Encoded date                             : UTC 2022-08-10 12:52:36
  12. Writing application                      : mkvmerge v42.0.0 ('Overtime') 64-bit
  13. Writing library                          : libebml v1.3.10 + libmatroska v1.5.2

  14. Video
  15. ID                                       : 1
  16. Format                                   : HEVC
  17. Format/Info                              : High Efficiency Video Coding
  18. Format profile                           : Main 10@L4@Main
  19. Codec ID                                 : V_MPEGH/ISO/HEVC
  20. Duration                                 : 2 h 40 min
  21. Bit rate                                 : 8 408 kb/s
  22. Width                                    : 1 920 pixels
  23. Height                                   : 960 pixels
  24. Display aspect ratio                     : 2.000
  25. Frame rate mode                          : Constant
  26. Frame rate                               : 23.976 (24000/1001) FPS
  27. Color space                              : YUV
  28. Chroma subsampling                       : 4:2:0
  29. Bit depth                                : 10 bits
  30. Bits/(Pixel*Frame)                       : 0.190
  31. Stream size                              : 9.44 GiB (71%)
  32. Writing library                          : x265 3.4+2-73ca1d7be377:[Windows][GCC 6.3.0][64 bit] 10bit
  33. Encoding settings                        : cpuid=1111039 / frame-threads=5 / numa-pools=36,36 / wpp / no-pmode / no-pme / no-psnr / no-ssim / log-level=2 / input-csp=1 / input-res=1920x960 / interlace=0 / total-frames=231147 / level-idc=0 / high-tier=1 / uhd-bd=0 / ref=3 / no-allow-non-conformance / no-repeat-headers / annexb / no-aud / no-hrd / info / hash=0 / no-temporal-layers / no-open-gop / min-keyint=23 / keyint=250 / gop-lookahead=0 / bframes=4 / b-adapt=2 / b-pyramid / bframe-bias=0 / rc-lookahead=20 / lookahead-slices=6 / scenecut=40 / hist-scenecut=0 / radl=0 / no-splice / no-intra-refresh / ctu=64 / min-cu-size=8 / no-rect / no-amp / max-tu-size=32 / tu-inter-depth=1 / tu-intra-depth=1 / limit-tu=0 / rdoq-level=0 / dynamic-rd=0.00 / no-ssim-rd / signhide / no-tskip / nr-intra=0 / nr-inter=0 / no-constrained-intra / no-strong-intra-smoothing / max-merge=3 / limit-refs=1 / no-limit-modes / me=1 / subme=2 / merange=57 / temporal-mvp / no-frame-dup / no-hme / weightp / no-weightb / no-analyze-src-pics / deblock=0:0 / no-sao / no-sao-non-deblock / rd=3 / selective-sao=0 / early-skip / rskip / no-fast-intra / no-tskip-fast / no-cu-lossless / b-intra / no-splitrd-skip / rdpenalty=0 / psy-rd=2.00 / psy-rdoq=0.00 / no-rd-refine / no-lossless / cbqpoffs=0 / crqpoffs=0 / rc=crf / crf=21.0 / qcomp=0.80 / qpstep=4 / stats-write=0 / stats-read=0 / ipratio=1.40 / pbratio=1.30 / aq-mode=2 / aq-strength=1.00 / cutree / zone-count=0 / no-strict-cbr / qg-size=32 / no-rc-grain / qpmax=69 / qpmin=0 / no-const-vbv / sar=1 / overscan=0 / videoformat=5 / range=0 / colorprim=2 / transfer=2 / colormatrix=2 / chromaloc=0 / display-window=0 / cll=0,0 / min-luma=0 / max-luma=1023 / log2-max-poc-lsb=8 / vui-timing-info / vui-hrd-info / slices=1 / no-opt-qp-pps / no-opt-ref-list-length-pps / no-multi-pass-opt-rps / scenecut-bias=0.05 / hist-threshold=0.01 / no-opt-cu-delta-qp / no-aq-motion / no-hdr10 / no-hdr10-opt / no-dhdr10-opt / no-idr-recovery-sei / analysis-reuse-level=0 / analysis-save-reuse-level=0 / analysis-load-reuse-level=0 / scale-factor=0 / refine-intra=0 / refine-inter=0 / refine-mv=1 / refine-ctu-distortion=0 / no-limit-sao / ctu-info=0 / no-lowpass-dct / refine-analysis-type=0 / copy-pic=1 / max-ausize-factor=1.0 / no-dynamic-refine / no-single-sei / no-hevc-aq / no-svt / no-field / qp-adaptation-range=1.00 / no-scenecut-aware-qpconformance-window-offsets / right=0 / bottom=0 / decoder-max-rate=0
  34. Default                                  : Yes
  35. Forced                                   : No

  36. Audio
  37. ID                                       : 2
  38. Format                                   : DTS XLL X
  39. Format/Info                              : Digital Theater Systems
  40. Commercial name                          : DTS-HD Master Audio
  41. Codec ID                                 : A_DTS
  42. Duration                                 : 2 h 40 min
  43. Bit rate mode                            : Variable
  44. Bit rate                                 : 3 301 kb/s
  45. Channel(s)                               : 8 channels
  46. Channel(s)_Original                      : Object Based
  47. ChannelLayout_Original                   : Object Based
  48. Sampling rate                            : 48.0 kHz
  49. Frame rate                               : 93.750 FPS (512 SPF)
  50. Bit depth                                : 24 bits
  51. Stream size                              : 3.70 GiB (28%)
  52. Language                                 : English
  53. Default                                  : Yes
  54. Forced                                   : No

  55. Text #1
  56. ID                                       : 3
  57. Format                                   : UTF-8
  58. Codec ID                                 : S_TEXT/UTF8
  59. Codec ID/Info                            : UTF-8 Plain Text
  60. Duration                                 : 2 h 25 min
  61. Bit rate                                 : 43 b/s
  62. Count of elements                        : 1547
  63. Stream size                              : 45.8 KiB (0%)
  64. Language                                 : Chinese
  65. Default                                  : Yes
  66. Forced                                   : No

  67. Text #2
  68. ID                                       : 4
  69. Format                                   : UTF-8
  70. Codec ID                                 : S_TEXT/UTF8
  71. Codec ID/Info                            : UTF-8 Plain Text
  72. Duration                                 : 2 h 25 min
  73. Bit rate                                 : 43 b/s
  74. Count of elements                        : 1547
  75. Stream size                              : 45.8 KiB (0%)
  76. Language                                 : Chinese
  77. Default                                  : No
  78. Forced                                   : No

  79. Text #3
  80. ID                                       : 5
  81. Format                                   : PGS
  82. Muxing mode                              : zlib
  83. Codec ID                                 : S_HDMV/PGS
  84. Codec ID/Info                            : Picture based subtitle format used on BDs/HD-DVDs
  85. Duration                                 : 2 h 25 min
  86. Bit rate                                 : 44.6 kb/s
  87. Count of elements                        : 3067
  88. Stream size                              : 46.3 MiB (0%)
  89. Language                                 : Chinese
  90. Default                                  : No
  91. Forced                                   : No

  92. Text #4
  93. ID                                       : 6
  94. Format                                   : PGS
  95. Muxing mode                              : zlib
  96. Codec ID                                 : S_HDMV/PGS
  97. Codec ID/Info                            : Picture based subtitle format used on BDs/HD-DVDs
  98. Duration                                 : 2 h 25 min
  99. Bit rate                                 : 45.2 kb/s
  100. Count of elements                        : 3067
  101. Stream size                              : 46.9 MiB (0%)
  102. Language                                 : Chinese
  103. Default                                  : No
  104. Forced                                   : No

  105. Text #5
  106. ID                                       : 7
  107. Format                                   : PGS
  108. Muxing mode                              : zlib
  109. Codec ID                                 : S_HDMV/PGS
  110. Codec ID/Info                            : Picture based subtitle format used on BDs/HD-DVDs
  111. Duration                                 : 2 h 37 min
  112. Bit rate                                 : 36.8 kb/s
  113. Count of elements                        : 4074
  114. Stream size                              : 41.5 MiB (0%)
  115. Language                                 : English
  116. Default                                  : No
  117. Forced                                   : No




下载地址:

Jurassic.World.Dominion.2022.EXTENDED.BluRay.1080p.HEVC.10bit-MOMOHD.torrent

BT9527电影天堂 1、BT9527电影天堂提供的BT文件均来源于互联网抓取,只供网友学习交流、技术提升使用。
2、我们遵守BitTorrent点对点协议原则,任何版权问题请联系原资源发布商,我们不处理任何版权纠纷,谢谢!如有争议请联系邮箱:BT9527#hotmail.com(#换成@)
3、如果您发现某页面或地址有错误,请联系站长邮箱BT9527#hotmail.com(#换成@),我们会尽快处理。您的热心是对BT9527电影天堂最大的支持。
4、本站建议去正规影院观看电影以支持电影行业发展。
最新回复 (0)

你可以在 登录 or 注册 后,对此帖发表评论!

返回