道师爷2[中文字幕/国语音轨].Demon.Catcher.2.2022.1080p.WEB-DL.H265.DDP-TAGWEB 1.41GB

版主小s 3月前 300

✔资源类型:WEB-1080P   ✔电影年份:2021   ✔电影地区:大陆   ✔电影分类:剧情

◎标  题 道师爷2
◎年  代 2021
◎产  地 中国大陆
◎类  别 剧情
◎IMDb链接 https://www.imdb.com/title//
◎豆瓣链接 https://movie.douban.com/subject/35295650/
◎导  演 王重 Chong Wang

  1. ##### MediaInfo ######
  2. General
  3. Unique ID                                : 135891978132633003774384619690619956089 (0x663BD7CE1C9A028B06845B310E3DEB79)
  4. Complete name                            : Demon.Catcher.2.2022.1080p.WEB-DL.H265.DDP-TAGWEB.mkv
  5. Format                                   : Matroska
  6. Format version                           : Version 4
  7. File size                                : 1.41 GiB
  8. Duration                                 : 1 h 15 min
  9. Overall bit rate                         : 2 685 kb/s
  10. Writing application                      : mkvmerge v69.0.0 ('Day And Age') 64-bit
  11. Writing library                          : libebml v1.4.2 + libmatroska v1.6.4

  12. Video
  13. ID                                       : 1
  14. Format                                   : HEVC
  15. Format/Info                              : High Efficiency Video Coding
  16. Format profile                           : Main@L4@Main
  17. Codec ID                                 : V_MPEGH/ISO/HEVC
  18. Duration                                 : 1 h 15 min
  19. Bit rate                                 : 2 237 kb/s
  20. Width                                    : 1 920 pixels
  21. Height                                   : 816 pixels
  22. Display aspect ratio                     : 2.35:1
  23. Frame rate mode                          : Constant
  24. Frame rate                               : 24.000 FPS
  25. Color space                              : YUV
  26. Chroma subsampling                       : 4:2:0
  27. Bit depth                                : 8 bits
  28. Bits/(Pixel*Frame)                       : 0.060
  29. Stream size                              : 1.18 GiB (83%)
  30. Language                                 : Chinese
  31. Default                                  : Yes
  32. Forced                                   : No

  33. Audio #1
  34. ID                                       : 2
  35. Format                                   : E-AC-3
  36. Format/Info                              : Enhanced AC-3
  37. Commercial name                          : Dolby Digital Plus
  38. Codec ID                                 : A_EAC3
  39. Duration                                 : 1 h 15 min
  40. Bit rate mode                            : Constant
  41. Bit rate                                 : 256 kb/s
  42. Channel(s)                               : 2 channels
  43. Channel layout                           : L R
  44. Sampling rate                            : 48.0 kHz
  45. Frame rate                               : 31.250 FPS (1536 SPF)
  46. Compression mode                         : Lossy
  47. Stream size                              : 138 MiB (10%)
  48. Language                                 : Chinese
  49. Service kind                             : Complete Main
  50. Default                                  : Yes
  51. Forced                                   : No

  52. Audio #2
  53. ID                                       : 3
  54. Format                                   : AAC LC
  55. Format/Info                              : Advanced Audio Codec Low Complexity
  56. Codec ID                                 : A_AAC-2
  57. Duration                                 : 1 h 15 min
  58. Bit rate                                 : 192 kb/s
  59. Channel(s)                               : 2 channels
  60. Channel layout                           : L R
  61. Sampling rate                            : 44.1 kHz
  62. Frame rate                               : 43.066 FPS (1024 SPF)
  63. Compression mode                         : Lossy
  64. Stream size                              : 102 MiB (7%)
  65. Language                                 : Chinese
  66. Default                                  : No
  67. Forced                                   : No




下载地址:

Demon.Catcher.2.2022.1080p.WEB-DL.H265.DDP-TAGWEB.torrent

BT9527电影天堂 1、BT9527电影天堂提供的BT文件均来源于互联网抓取,只供网友学习交流、技术提升使用。
2、我们遵守BitTorrent点对点协议原则,任何版权问题请联系原资源发布商,我们不处理任何版权纠纷,谢谢!如有争议请联系邮箱:BT9527#hotmail.com(#换成@)
3、如果您发现某页面或地址有错误,请联系站长邮箱BT9527#hotmail.com(#换成@),我们会尽快处理。您的热心是对BT9527电影天堂最大的支持。
4、本站建议去正规影院观看电影以支持电影行业发展。
最新回复 (0)

你可以在 登录 or 注册 后,对此帖发表评论!

返回
发新帖