007别传之皇家夜总会[中英字幕].Casino.Royale.1967.BluRay.1080p.x265.10bit-MiniHD 4.86GB

版主小s 9月前 471

✔资源类型:暂未分类   ✔电影年份:更 早   ✔电影地区:欧美   ✔电影分类:喜剧

◎标  题 007别传之皇家夜总会
◎译  名 铁金刚横扫皇家赌场 / 皇家夜总会 / 皇家赌场 / 铁金刚勇破皇家夜总会
◎片  名 Casino Royale
◎年  代 1967
◎产  地 英国 / 美国
◎类  别 喜剧 / 动作 / 冒险
◎语  言 英语 / 法语
◎上映日期 1967-04-13
◎IMDb评分 5.1/10 (29140人评价)
◎IMDb链接 https://www.imdb.com/title/tt0061452/
◎豆瓣链接 https://movie.douban.com/subject/1294814/
◎片  长 131 分钟

◎标  签 007 / 英国 / 美国 / 动作 / 喜剧 / 1967 / 伍迪·艾伦 / 特工

◎简  介
    剧情介绍:                                    
                                  片中的男主角是已退休的邦德爵士,正在备感无聊之际,他以前的上司M被杀,邦德乃从伦敦前往苏格兰探访M的遗孀,不料遗孀却企图勾引他,失败之后跑去当修女。邦德继续追查凶手,接触了一群形形色色的间谍,最后在皇家夜总会展开大对决。                                    
                                  影片中众多的噱头普遍偏于老式,但片中可称精彩的部分还不算少,伍迪第一次出场从一个形成逃到另一个刑场的段落、东德拍卖小黄色照片的拍卖会、如果你喜欢看大场面,那最后一个大混战的场面也许你会满意——真正是一场“混战”。                                    
                                  老007——詹姆斯·邦德爵爷已经退休了,如今CIA、KGB,以及英国谍报组织等机构的四个老板级人物联袂而来,请他再次出山,协助调查雇员失踪被袭事件。老邦德已经决意退休,不为所动,他的老上级M乾脆点燃雪茄,外面的部队看到信号,发炮炸毁了邦德的宅第。                                    
                                  老邦德一出山,敌人就决定要毁掉这个伟大的、道德高尚的、不近女色的007。老邦德得到M的死讯,他来到M家吊唁,M的夫人和十一个美丽的女儿让他有点手忙脚乱,葬礼上的狂欢和寡妇借M家族葬礼传统而进行的求欢都没有让伟大的007失去贞操。M寡妇叫来几条大汉,要007比试力气,也被老爷子轻而易举地解决,搞得M寡妇芳心大动如醉如痴地爱上了他。女儿们邀老邦德出来打鸟,布置的飞弹局被老邦德和倒戈的M寡妇破掉。                                    
                                  老邦德一路飞车,杀回英格兰自己的办公室,得知基本上己方的情报员损失殆尽,只有加勒比海联络处自己的侄子吉米·邦德从一个刑场逃到另一个刑场生死未卜。老邦德决定招收新的血液对付敌人,他要女秘书选来不禁女色的古柏,派手下用大批美女吧他训练得“生女勿近”;又通过一个江湖女强人贝丝小姐找到了发明新赌术的爱弗林,训练他成为另一个007的代表。                                    
                                  此外,老邦德亲自出马,找到自己多年未见的女儿玛特,要她利用身份和美色混进敌方大本营——东柏林的国际模特训练学校。玛特的母亲原本出身于这间“间谍训练学校”,玛特混了进去,很快就探听到一些秘密,并按指示搅黄了敌方代理人西维举办的一场拍卖会,搞得会场上鸡飞狗跳。                                    
                                  爱弗林受命与西维赌牌,西维是个牌坛高手,而且会变魔术,爱弗林和贝丝先换掉了对方的透视眼镜,然后用爱弗林的赌术大获全胜。西维派人在赌场外绑架了两人,但却被国际老千组织派来的人以赌博失败罪处死。                                    
                                  玛特等人被敌方派人绑架,老邦德从M寡妇那里得到消息,追上一座孤岛,反而被对方俘虏,抓进“国际老千大楼”。此时敌方的主持人诺瓦博士才正式露面,原来就是矮小滑稽的吉米·邦德。吉米告诉他们,自己要用一种药物把所有女人都变美,把所有比自己高的男人都毒死,然后利用多年制造的复制人在五天之内控制整个世界。                                    
                                  吉米向自己仰慕已久的贝丝大献殷勤,贝丝趁机让他服下他自己研制的另一种在体内不断爆炸的药物,然后逃出实验室。这个老千大楼成了一个混战的大战场,各路英雄纷纷杀出,从各国情报人员到西部豪侠,甚至印第安武士也纷纷亮相,最后吉米体内的炸弹爆炸,所有人都成了天使,只有吉米落下了地狱。                                    
                                  影片拍摄时,正是肖恩·康纳利的007大行其道之时,于是就在四部正式的007之后,有了这部“无厘头”版的007。其实,影片也是根据007之父伊安·弗莱明的原著改编,而且是早在第一部007《NO博士》之前八年就有改编版本问世的,只不过那时候007还是个电视上的小字号。                                    
                                  毕竟是那个时代大制作的搞笑片,影片中很多小细节虽然“笑果”不算惊人,但都是如今搞笑片中不多见的大手笔,而片中对于007系列作品的戏仿却启发了后辈们很多同类作品。像老邦德见到自己的秘书玛番妮,拥抱接吻后才得知,她是原来秘书的女儿,那周星驰的《国产007》中的同样段落恐怕就不是原创了,诸如此类的东西还很多。不过,不能不说,这部豪华搞笑片中的笑料,不是缺乏幽默感,就是有点过于老式,如今看来稍嫌温吞。                                    
                                  影片最大的特色就是明星云集,单导演就有五位,其中最著名的就是大导演约翰·休斯敦,他甚至还客串了片中的短命鬼M。明星中,老邦德是老牌英国绅士大卫·尼文,赌博高手爱弗林是英国“千面人”彼得·塞勒斯,像魔术师一样极富魅力的老千高手就是大名鼎鼎的奥逊·威尔斯,再年轻的有刚刚出道的伍迪·艾伦,他从这个刑场逃到那个刑场的段落之让人想起周星驰刑场脱困的那一段,而他控制世界的大阴谋也有着典型的伍迪特色。所以,即使影片稍嫌落伍与时代,但这些大明星的风采还是颇值得一看的。
  1. ##### MediaInfo ######
  2. General
  3. Unique ID                                : 240753524334474016002452903138900998740 (0xB51F7132442A7895BC8CF51E5AA27A54)
  4. Complete name                            : Casino.Royale.1967.BluRay.1080p.x265.10bit-MiniHD.mkv
  5. Format                                   : Matroska
  6. Format version                           : Version 4
  7. File size                                : 4.86 GiB
  8. Duration                                 : 2 h 11 min
  9. Overall bit rate                         : 5 307 kb/s
  10. Encoded date                             : UTC 2016-04-11 12:36:37
  11. Writing application                      : mkvmerge v7.5.0 ('Glass Culture') 64bit built on Jan  4 2015 16:48:44
  12. Writing library                          : libebml v1.3.1 + libmatroska v1.4.2

  13. Video
  14. ID                                       : 1
  15. Format                                   : HEVC
  16. Format/Info                              : High Efficiency Video Coding
  17. Codec ID                                 : V_MPEGH/ISO/HEVC
  18. Duration                                 : 2 h 11 min
  19. Bit rate                                 : 4 627 kb/s
  20. Width                                    : 1 920 pixels
  21. Height                                   : 824 pixels
  22. Display aspect ratio                     : 2.35:1
  23. Frame rate mode                          : Constant
  24. Frame rate                               : 23.976 (24000/1001) FPS
  25. Bits/(Pixel*Frame)                       : 0.122
  26. Stream size                              : 4.24 GiB (87%)
  27. Default                                  : Yes
  28. Forced                                   : No

  29. Audio
  30. ID                                       : 2
  31. Format                                   : AC-3
  32. Format/Info                              : Audio Coding 3
  33. Commercial name                          : Dolby Digital
  34. Codec ID                                 : A_AC3
  35. Duration                                 : 2 h 11 min
  36. Bit rate mode                            : Constant
  37. Bit rate                                 : 640 kb/s
  38. Channel(s)                               : 6 channels
  39. Channel layout                           : L R C LFE Ls Rs
  40. Sampling rate                            : 48.0 kHz
  41. Frame rate                               : 31.250 FPS (1536 SPF)
  42. Compression mode                         : Lossy
  43. Stream size                              : 600 MiB (12%)
  44. Language                                 : English
  45. Service kind                             : Complete Main
  46. Default                                  : Yes
  47. Forced                                   : No

  48. Text #1
  49. ID                                       : 3
  50. Format                                   : PGS
  51. Muxing mode                              : zlib
  52. Codec ID                                 : S_HDMV/PGS
  53. Codec ID/Info                            : Picture based subtitle format used on BDs/HD-DVDs
  54. Duration                                 : 2 h 10 min
  55. Bit rate                                 : 14.7 kb/s
  56. Count of elements                        : 2798
  57. Stream size                              : 13.8 MiB (0%)
  58. Language                                 : English
  59. Default                                  : Yes
  60. Forced                                   : No

  61. Text #2
  62. ID                                       : 4
  63. Format                                   : PGS
  64. Muxing mode                              : zlib
  65. Codec ID                                 : S_HDMV/PGS
  66. Codec ID/Info                            : Picture based subtitle format used on BDs/HD-DVDs
  67. Duration                                 : 2 h 10 min
  68. Bit rate                                 : 11.5 kb/s
  69. Count of elements                        : 2692
  70. Stream size                              : 10.8 MiB (0%)
  71. Language                                 : Chinese
  72. Default                                  : No
  73. Forced                                   : No

  74. Text #3
  75. ID                                       : 5
  76. Format                                   : PGS
  77. Muxing mode                              : zlib
  78. Codec ID                                 : S_HDMV/PGS
  79. Codec ID/Info                            : Picture based subtitle format used on BDs/HD-DVDs
  80. Duration                                 : 2 h 10 min
  81. Bit rate                                 : 11.7 kb/s
  82. Count of elements                        : 2692
  83. Stream size                              : 10.9 MiB (0%)
  84. Language                                 : Chinese
  85. Default                                  : No
  86. Forced                                   : No

  87. Menu
  88. 00:00:00.000                             : :
  89. 00:05:42.384                             : :
  90. 00:12:03.848                             : :
  91. 00:15:46.487                             : :
  92. 00:19:23.954                             : :
  93. 00:21:47.848                             : :
  94. 00:28:04.391                             : :
  95. 00:37:02.512                             : :
  96. 00:40:24.380                             : :
  97. 00:44:19.031                             : :
  98. 00:52:11.170                             : :
  99. 00:56:34.641                             : :
  100. 01:01:20.886                             : :
  101. 01:08:19.053                             : :
  102. 01:16:42.681                             : :
  103. 01:22:20.936                             : :
  104. 01:28:55.372                             : :
  105. 01:41:04.475                             : :
  106. 01:46:17.788                             : :
  107. 01:50:22.282                             : :
  108. 01:53:15.872                             : :
  109. 01:58:59.090                             : :
  110. 02:03:33.031                             : :
  111. 02:08:41.213                             : :




下载地址:

Casino.Royale.1967.BluRay.1080p.x265.10bit-MiniHD.torrent

BT9527电影天堂 1、BT9527电影天堂提供的BT文件均来源于互联网抓取,只供网友学习交流、技术提升使用。
2、我们遵守BitTorrent点对点协议原则,任何版权问题请联系原资源发布商,我们不处理任何版权纠纷,谢谢!如有争议请联系邮箱:BT9527#hotmail.com(#换成@)
3、如果您发现某页面或地址有错误,请联系站长邮箱BT9527#hotmail.com(#换成@),我们会尽快处理。您的热心是对BT9527电影天堂最大的支持。
4、本站建议去正规影院观看电影以支持电影行业发展。
最新回复 (0)

你可以在 登录 or 注册 后,对此帖发表评论!

返回