007之雷霆谷[国英多音轨/中英字幕].You.Only.Live.Twice.1967.BluRay.1080p.x265.10bit.2Audio-MiniHD 7.43GB

版主小s 9月前 504

✔资源类型:暂未分类   ✔电影年份:更 早   ✔电影地区:欧美   ✔电影分类:动作

◎标  题 007之雷霆谷
◎译  名 铁金刚勇破火箭岭 / 雷霆谷 / 你只能活两次
◎片  名 You Only Live Twice
◎年  代 1967
◎产  地 英国
◎类  别 动作 / 科幻 / 惊悚 / 冒险
◎语  言 英语 / 日语 / 俄语
◎上映日期 1967-06-13(英国)
◎IMDb评分 6.8/10 (105017人评价)
◎IMDb链接 https://www.imdb.com/title/tt0062512/
◎豆瓣评分 6.9/10 (7479人评价)
◎豆瓣链接 https://movie.douban.com/subject/1297050/
◎片  长 117 分钟
◎导  演 刘易斯·吉尔伯特 Lewis Gilbert
◎编  剧 罗尔德·达尔 Roald Dahl
       哈罗德·杰克·布卢姆 Harold Jack Bloom
       伊恩·弗莱明 Ian Fleming
◎演  员 肖恩·康纳利 Sean Connery
       若林映子 Akiko Wakabayashi
       滨美枝 Mie Hama
       丹波哲郎 Tetsurô Tanba
       岛田 Teru Shimada
       卡琳·多 Karin Dor
       唐纳德·普利森斯 Donald Pleasence
       乔治·穆塞尔 George Murcell
       露易丝·麦斯威尔 Lois Maxwell
       比尔·纳吉 Bill Nagy
       维克·阿姆斯特朗 Vic Armstrong
       Peter Fanene Maivia Peter Fanene Maivia
       理查德·马内尔 Richard Marner
       大卫·希里 David Healy
       罗伯特·里耶蒂 Robert Rietty
       威廉姆·西尔维斯特 William Sylvester
       约翰·斯通 John Stone
       查尔斯·格雷 Charles Gray
       布莱恩·怀尔德 Brian Wilde
       Sadanoyama Sadanoyama
       松岡きっこ Kikko Matsuoka
       罗伯特·李 Robert Lee
       Masaaki Hatsumi Masaaki Hatsumi
       艾德·毕肖普 Ed Bishop
       帕特里克·乔丹 Patrick Jordan
       David Bauer David Bauer
       周采芹 Tsai Chin
       罗伯特·赫顿 Robert Hutton
       亚历山大·诺克斯 Alexander Knox
       伯纳德·李 Bernard Lee
       戴斯蒙德·莱维林 Desmond Llewelyn
       郭弼 Burt Kwouk
       乔治·贝克 George Baker
       Anthony Ainley Anthony Ainley
       罗宾·贝利 Robin Bailey
       David Toguri David Toguri

◎标  签 007 / 动作 / 英国 / 肖恩·康纳利 / 1967 / 间谍 / 特工 / 电影

◎简  介
    一天,美国太空船遭到了不明飞行物的攻击,美方怀疑是苏联的阴谋,目的是想独霸太空。美方测出了不明飞行物的降落地点是在日本,于是英国军方派出007(肖恩•康纳利 Sean Connery 饰)前往日本替美方调查此事。由于007的身份特殊,直接进入日本容易被敌人察觉。为了掩人耳目,007先是在香港假死,然后用新的身份进入了日本。另一方面,苏联的太空船也受到攻击,苏联同样认为是美国的阴谋。007在经过一番调查之后,发现整个阴谋的幕后主脑竟然是日本一家化学公司!007能否及时粉碎它的阴谋,化解误会?
  1. ##### MediaInfo ######
  2. General
  3. Unique ID                                : 176666515933080314126996741138925488580 (0x84E8BBBAE63E990AA7906D66FA2409C4)
  4. Complete name                            : You.Only.Live.Twice.1967.BluRay.1080p.x265.10bit.2Audio-MiniHD.mkv
  5. Format                                   : Matroska
  6. Format version                           : Version 4
  7. File size                                : 7.43 GiB
  8. Duration                                 : 1 h 56 min
  9. Overall bit rate                         : 9 096 kb/s
  10. Encoded date                             : UTC 2016-04-08 05:04:36
  11. Writing application                      : mkvmerge v7.5.0 ('Glass Culture') 64bit built on Jan  4 2015 16:48:44
  12. Writing library                          : libebml v1.3.1 + libmatroska v1.4.2

  13. Video
  14. ID                                       : 1
  15. Format                                   : HEVC
  16. Format/Info                              : High Efficiency Video Coding
  17. Codec ID                                 : V_MPEGH/ISO/HEVC
  18. Duration                                 : 1 h 56 min
  19. Bit rate                                 : 7 635 kb/s
  20. Width                                    : 1 920 pixels
  21. Height                                   : 816 pixels
  22. Display aspect ratio                     : 2.35:1
  23. Frame rate mode                          : Constant
  24. Frame rate                               : 23.976 (24000/1001) FPS
  25. Bits/(Pixel*Frame)                       : 0.203
  26. Stream size                              : 6.24 GiB (84%)
  27. Default                                  : Yes
  28. Forced                                   : No

  29. Audio #1
  30. ID                                       : 2
  31. Format                                   : AC-3
  32. Format/Info                              : Audio Coding 3
  33. Commercial name                          : Dolby Digital
  34. Codec ID                                 : A_AC3
  35. Duration                                 : 1 h 56 min
  36. Bit rate mode                            : Constant
  37. Bit rate                                 : 640 kb/s
  38. Channel(s)                               : 6 channels
  39. Channel layout                           : L R C LFE Ls Rs
  40. Sampling rate                            : 48.0 kHz
  41. Frame rate                               : 31.250 FPS (1536 SPF)
  42. Compression mode                         : Lossy
  43. Stream size                              : 535 MiB (7%)
  44. Language                                 : English
  45. Service kind                             : Complete Main
  46. Default                                  : Yes
  47. Forced                                   : No

  48. Audio #2
  49. ID                                       : 3
  50. Format                                   : AC-3
  51. Format/Info                              : Audio Coding 3
  52. Commercial name                          : Dolby Digital
  53. Codec ID                                 : A_AC3
  54. Duration                                 : 1 h 56 min
  55. Bit rate mode                            : Constant
  56. Bit rate                                 : 640 kb/s
  57. Channel(s)                               : 6 channels
  58. Channel layout                           : L R C LFE Ls Rs
  59. Sampling rate                            : 48.0 kHz
  60. Frame rate                               : 31.250 FPS (1536 SPF)
  61. Compression mode                         : Lossy
  62. Stream size                              : 535 MiB (7%)
  63. Language                                 : Chinese
  64. Service kind                             : Complete Main
  65. Default                                  : No
  66. Forced                                   : No

  67. Text #1
  68. ID                                       : 4
  69. Format                                   : PGS
  70. Muxing mode                              : zlib
  71. Codec ID                                 : S_HDMV/PGS
  72. Codec ID/Info                            : Picture based subtitle format used on BDs/HD-DVDs
  73. Language                                 : English
  74. Default                                  : Yes
  75. Forced                                   : No

  76. Text #2
  77. ID                                       : 5
  78. Format                                   : PGS
  79. Muxing mode                              : zlib
  80. Codec ID                                 : S_HDMV/PGS
  81. Codec ID/Info                            : Picture based subtitle format used on BDs/HD-DVDs
  82. Language                                 : Chinese
  83. Default                                  : No
  84. Forced                                   : No

  85. Text #3
  86. ID                                       : 6
  87. Format                                   : PGS
  88. Muxing mode                              : zlib
  89. Codec ID                                 : S_HDMV/PGS
  90. Codec ID/Info                            : Picture based subtitle format used on BDs/HD-DVDs
  91. Language                                 : Chinese
  92. Default                                  : No
  93. Forced                                   : No

  94. Text #4
  95. ID                                       : 7
  96. Format                                   : PGS
  97. Muxing mode                              : zlib
  98. Codec ID                                 : S_HDMV/PGS
  99. Codec ID/Info                            : Picture based subtitle format used on BDs/HD-DVDs
  100. Language                                 : Chinese
  101. Default                                  : No
  102. Forced                                   : No

  103. Menu
  104. 00:00:00.000                             : :Chapter 01
  105. 00:05:02.093                             : :Chapter 02
  106. 00:06:10.536                             : :Chapter 03
  107. 00:08:54.075                             : :Chapter 04
  108. 00:11:49.375                             : :Chapter 05
  109. 00:15:23.088                             : :Chapter 06
  110. 00:19:25.914                             : :Chapter 07
  111. 00:24:18.915                             : :Chapter 08
  112. 00:28:19.656                             : :Chapter 09
  113. 00:31:28.720                             : :Chapter 10
  114. 00:33:09.112                             : :Chapter 11
  115. 00:36:14.589                             : :Chapter 12
  116. 00:40:48.070                             : :Chapter 13
  117. 00:44:17.821                             : :Chapter 14
  118. 00:46:59.817                             : :Chapter 15
  119. 00:51:13.779                             : :Chapter 16
  120. 00:54:37.274                             : :Chapter 17
  121. 00:58:58.701                             : :Chapter 18
  122. 01:03:27.845                             : :Chapter 19
  123. 01:09:01.971                             : :Chapter 20
  124. 01:12:26.717                             : :Chapter 21
  125. 01:14:07.067                             : :Chapter 22
  126. 01:17:33.649                             : :Chapter 23
  127. 01:20:25.904                             : :Chapter 24
  128. 01:24:25.685                             : :Chapter 25
  129. 01:28:42.734                             : :Chapter 26
  130. 01:34:54.647                             : :Chapter 27
  131. 01:35:49.994                             : :Chapter 28
  132. 01:38:13.178                             : :Chapter 29
  133. 01:44:26.301                             : :Chapter 30
  134. 01:48:19.534                             : :Chapter 31
  135. 01:53:25.507                             : :Chapter 32




下载地址:

You.Only.Live.Twice.1967.BluRay.1080p.x265.10bit.2Audio-MiniHD.torrent

BT9527电影天堂 1、BT9527电影天堂提供的BT文件均来源于互联网抓取,只供网友学习交流、技术提升使用。
2、我们遵守BitTorrent点对点协议原则,任何版权问题请联系原资源发布商,我们不处理任何版权纠纷,谢谢!如有争议请联系邮箱:BT9527#hotmail.com(#换成@)
3、如果您发现某页面或地址有错误,请联系站长邮箱BT9527#hotmail.com(#换成@),我们会尽快处理。您的热心是对BT9527电影天堂最大的支持。
4、本站建议去正规影院观看电影以支持电影行业发展。
最新回复 (0)

你可以在 登录 or 注册 后,对此帖发表评论!

返回