KIMI[简繁英字幕].Kimi.2022.1080p.WEB-DL.DDP5.1.x264-MOMOWEB 5.28GB

版主小s 3月前 350

✔资源类型:WEB-1080P   ✔电影年份:2022   ✔电影地区:欧美   ✔电影分类:剧情

◎标  题 KIMI
◎译  名 冷酷不够热 / 冷感酷女孩(港) / 不够热的冷酷感 / Kimi
◎年  代 2022
◎产  地 美国
◎类  别 剧情 / 惊悚 / 犯罪
◎语  言 英语
◎上映日期 2022-02-10(美国网络)
◎IMDb评分 5.9/10 (70人评价)
◎IMDb链接 https://www.imdb.com/title/tt14128670/
◎豆瓣链接 https://movie.douban.com/subject/35377057/
◎片  长 149分钟
◎导  演 史蒂文·索德伯格 Steven Soderbergh
◎编  剧 大卫·凯普 David Koepp
◎演  员 佐伊·克罗维兹 Zoë Kravitz
       丽塔·威尔逊 Rita Wilson
       戴文·雷特瑞 Devin Ratray
       埃丽卡·克里斯滕森 Erika Christensen
       茵地亚·德·比尤福特 India de Beaufort
       罗宾·吉文斯 Robin Givens
       杰米·卡米尔 Jaime Camil
       贾克波·瓦格斯 Jacob Vargas
       查尔斯·哈尔福德 Charles Halford
       凯勒布·埃默里 Caleb Emery
       拜伦·鲍尔斯 Byron Bowers
       艾利克斯·多布兰口 Alex Dobrenko
       爱德华多·莱斯卡诺 Eduardo Lezcano
       凯尔·斯托尔茨 Kyle Stoltz
       艾伦·米罗伊尼克 Ellen Mirojnick

◎简  介
  #好莱坞影讯# 史蒂文·索德伯格下一部导演作品浮出水面,其将执导新片[冷酷不够热](KIMI),佐伊·克罗维兹领衔主演,该片也将在HBO Max首映。影片剧本由大卫·凯普撰写,讲述了一位有人群心理障碍的技术工作者,在普通数据流审阅过程中发现了暴力犯罪的记录证据,并尝试在其公司的指挥系统中进行报告。面对强大阻力和官僚主义,她意识到为了参与其中,她将不得不做她最担心的事情——离开她的公寓。
  1. ##### MediaInfo ######
  2. General
  3. Unique ID                                : 248978299807379866508612298146685738297 (0xBB4F79EF7687D9AF4A971DE050855D39)
  4. Complete name                            : Kimi.2022.1080p.WEB-DL.DDP5.1.x264-MOMOWEB.mkv
  5. Format                                   : Matroska
  6. Format version                           : Version 4
  7. File size                                : 5.28 GiB
  8. Duration                                 : 1 h 29 min
  9. Overall bit rate mode                    : Variable
  10. Overall bit rate                         : 8 480 kb/s
  11. Movie name                               : Kimi.2022.1080p.WEB-DL.DDP5.1.x264-PTerWEB
  12. Encoded date                             : UTC 2022-12-14 07:24:55
  13. Writing application                      : mkvmerge v72.0.0 ('Minuano (Six-eight)') 64-bit
  14. Writing library                          : libebml v1.4.4 + libmatroska v1.7.1

  15. Video
  16. ID                                       : 1
  17. Format                                   : AVC
  18. Format/Info                              : Advanced Video Codec
  19. Format profile                           : High@L4
  20. Format settings                          : CABAC / 4 Ref Frames
  21. Format settings, CABAC                   : Yes
  22. Format settings, Reference frames        : 4 frames
  23. Codec ID                                 : V_MPEG4/ISO/AVC
  24. Duration                                 : 1 h 29 min
  25. Bit rate mode                            : Variable
  26. Bit rate                                 : 8 250 kb/s
  27. Maximum bit rate                         : 12.4 Mb/s
  28. Width                                    : 1 920 pixels
  29. Height                                   : 1 080 pixels
  30. Display aspect ratio                     : 16:9
  31. Frame rate mode                          : Constant
  32. Frame rate                               : 23.976 (24000/1001) FPS
  33. Color space                              : YUV
  34. Chroma subsampling                       : 4:2:0
  35. Bit depth                                : 8 bits
  36. Scan type                                : Progressive
  37. Bits/(Pixel*Frame)                       : 0.166
  38. Stream size                              : 5.12 GiB (97%)
  39. Writing library                          : x264 core 157 r2965 861cec4
  40. Encoding settings                        : cabac=1 / ref=4 / deblock=1:0:0 / analyse=0x3:0x113 / me=hex / subme=7 / psy=1 / psy_rd=1.00:0.00 / mixed_ref=1 / me_range=16 / chroma_me=1 / trellis=1 / 8x8dct=1 / cqm=0 / deadzone=21,11 / fast_pskip=1 / chroma_qp_offset=-2 / threads=34 / lookahead_threads=5 / sliced_threads=0 / nr=0 / decimate=1 / interlaced=0 / bluray_compat=0 / constrained_intra=0 / bframes=3 / b_pyramid=2 / b_adapt=1 / b_bias=0 / direct=1 / weightb=1 / open_gop=0 / weightp=2 / keyint=96 / keyint_min=96 / scenecut=40 / intra_refresh=0 / rc_lookahead=40 / rc=2pass / mbtree=1 / bitrate=8250 / ratetol=1.0 / qcomp=0.60 / qpmin=0 / qpmax=69 / qpstep=4 / cplxblur=20.0 / qblur=0.5 / vbv_maxrate=12375 / vbv_bufsize=6187 / nal_hrd=vbr / filler=0 / ip_ratio=1.40 / aq=1:1.00
  41. Default                                  : Yes
  42. Forced                                   : No
  43. Color range                              : Limited
  44. Color primaries                          : BT.709
  45. Transfer characteristics                 : BT.709
  46. Matrix coefficients                      : BT.709

  47. Audio
  48. ID                                       : 2
  49. Format                                   : E-AC-3
  50. Format/Info                              : Enhanced AC-3
  51. Commercial name                          : Dolby Digital Plus
  52. Codec ID                                 : A_EAC3
  53. Duration                                 : 1 h 29 min
  54. Bit rate mode                            : Constant
  55. Bit rate                                 : 256 kb/s
  56. Channel(s)                               : 6 channels
  57. Channel layout                           : L R C LFE Ls Rs
  58. Sampling rate                            : 48.0 kHz
  59. Frame rate                               : 31.250 FPS (1536 SPF)
  60. Compression mode                         : Lossy
  61. Delay relative to video                  : -83 ms
  62. Stream size                              : 163 MiB (3%)
  63. Language                                 : English
  64. Service kind                             : Complete Main
  65. Default                                  : Yes
  66. Forced                                   : No

  67. Text #1
  68. ID                                       : 3
  69. Format                                   : UTF-8
  70. Codec ID                                 : S_TEXT/UTF8
  71. Codec ID/Info                            : UTF-8 Plain Text
  72. Duration                                 : 1 h 28 min
  73. Bit rate                                 : 58 b/s
  74. Count of elements                        : 780
  75. Stream size                              : 38.2 KiB (0%)
  76. Language                                 : Bulgarian
  77. Default                                  : No
  78. Forced                                   : No

  79. Text #2
  80. ID                                       : 4
  81. Format                                   : UTF-8
  82. Codec ID                                 : S_TEXT/UTF8
  83. Codec ID/Info                            : UTF-8 Plain Text
  84. Duration                                 : 1 h 28 min
  85. Bit rate                                 : 32 b/s
  86. Count of elements                        : 768
  87. Stream size                              : 21.3 KiB (0%)
  88. Language                                 : Czech
  89. Default                                  : No
  90. Forced                                   : No

  91. Text #3
  92. ID                                       : 5
  93. Format                                   : UTF-8
  94. Codec ID                                 : S_TEXT/UTF8
  95. Codec ID/Info                            : UTF-8 Plain Text
  96. Duration                                 : 1 h 28 min
  97. Bit rate                                 : 35 b/s
  98. Count of elements                        : 767
  99. Stream size                              : 22.9 KiB (0%)
  100. Language                                 : Danish
  101. Default                                  : No
  102. Forced                                   : No

  103. Text #4
  104. ID                                       : 6
  105. Format                                   : UTF-8
  106. Codec ID                                 : S_TEXT/UTF8
  107. Codec ID/Info                            : UTF-8 Plain Text
  108. Duration                                 : 1 h 26 min
  109. Bit rate                                 : 49 b/s
  110. Count of elements                        : 1029
  111. Stream size                              : 31.5 KiB (0%)
  112. Title                                    : SDH
  113. Language                                 : English
  114. Default                                  : No
  115. Forced                                   : No

  116. Text #5
  117. ID                                       : 7
  118. Format                                   : UTF-8
  119. Codec ID                                 : S_TEXT/UTF8
  120. Codec ID/Info                            : UTF-8 Plain Text
  121. Duration                                 : 1 h 26 min
  122. Bit rate                                 : 48 b/s
  123. Count of elements                        : 1000
  124. Stream size                              : 30.3 KiB (0%)
  125. Title                                    : Latinoamérica SDH
  126. Language                                 : Spanish
  127. Default                                  : No
  128. Forced                                   : No

  129. Text #6
  130. ID                                       : 8
  131. Format                                   : UTF-8
  132. Codec ID                                 : S_TEXT/UTF8
  133. Codec ID/Info                            : UTF-8 Plain Text
  134. Duration                                 : 1 h 28 min
  135. Bit rate                                 : 37 b/s
  136. Count of elements                        : 769
  137. Stream size                              : 24.5 KiB (0%)
  138. Title                                    : Latinoamérica
  139. Language                                 : Spanish
  140. Default                                  : No
  141. Forced                                   : No

  142. Text #7
  143. ID                                       : 9
  144. Format                                   : UTF-8
  145. Codec ID                                 : S_TEXT/UTF8
  146. Codec ID/Info                            : UTF-8 Plain Text
  147. Duration                                 : 1 h 25 min
  148. Bit rate                                 : 34 b/s
  149. Count of elements                        : 713
  150. Stream size                              : 21.9 KiB (0%)
  151. Title                                    : Espa?a
  152. Language                                 : Spanish
  153. Default                                  : No
  154. Forced                                   : No

  155. Text #8
  156. ID                                       : 10
  157. Format                                   : UTF-8
  158. Codec ID                                 : S_TEXT/UTF8
  159. Codec ID/Info                            : UTF-8 Plain Text
  160. Duration                                 : 1 h 28 min
  161. Bit rate                                 : 35 b/s
  162. Count of elements                        : 771
  163. Stream size                              : 22.9 KiB (0%)
  164. Language                                 : Estonian
  165. Default                                  : No
  166. Forced                                   : No

  167. Text #9
  168. ID                                       : 11
  169. Format                                   : UTF-8
  170. Codec ID                                 : S_TEXT/UTF8
  171. Codec ID/Info                            : UTF-8 Plain Text
  172. Duration                                 : 1 h 28 min
  173. Bit rate                                 : 31 b/s
  174. Count of elements                        : 756
  175. Stream size                              : 20.7 KiB (0%)
  176. Language                                 : Finnish
  177. Default                                  : No
  178. Forced                                   : No

  179. Text #10
  180. ID                                       : 12
  181. Format                                   : UTF-8
  182. Codec ID                                 : S_TEXT/UTF8
  183. Codec ID/Info                            : UTF-8 Plain Text
  184. Duration                                 : 1 h 28 min
  185. Bit rate                                 : 33 b/s
  186. Count of elements                        : 771
  187. Stream size                              : 21.9 KiB (0%)
  188. Language                                 : Croatian
  189. Default                                  : No
  190. Forced                                   : No

  191. Text #11
  192. ID                                       : 13
  193. Format                                   : UTF-8
  194. Codec ID                                 : S_TEXT/UTF8
  195. Codec ID/Info                            : UTF-8 Plain Text
  196. Duration                                 : 1 h 28 min
  197. Bit rate                                 : 34 b/s
  198. Count of elements                        : 768
  199. Stream size                              : 22.6 KiB (0%)
  200. Language                                 : Hungarian
  201. Default                                  : No
  202. Forced                                   : No

  203. Text #12
  204. ID                                       : 14
  205. Format                                   : UTF-8
  206. Codec ID                                 : S_TEXT/UTF8
  207. Codec ID/Info                            : UTF-8 Plain Text
  208. Duration                                 : 1 h 28 min
  209. Bit rate                                 : 38 b/s
  210. Count of elements                        : 771
  211. Stream size                              : 24.8 KiB (0%)
  212. Language                                 : Icelandic
  213. Default                                  : No
  214. Forced                                   : No

  215. Text #13
  216. ID                                       : 15
  217. Format                                   : UTF-8
  218. Codec ID                                 : S_TEXT/UTF8
  219. Codec ID/Info                            : UTF-8 Plain Text
  220. Duration                                 : 1 h 28 min
  221. Bit rate                                 : 36 b/s
  222. Count of elements                        : 771
  223. Stream size                              : 23.8 KiB (0%)
  224. Language                                 : Lithuanian
  225. Default                                  : No
  226. Forced                                   : No

  227. Text #14
  228. ID                                       : 16
  229. Format                                   : UTF-8
  230. Codec ID                                 : S_TEXT/UTF8
  231. Codec ID/Info                            : UTF-8 Plain Text
  232. Duration                                 : 1 h 28 min
  233. Bit rate                                 : 36 b/s
  234. Count of elements                        : 778
  235. Stream size                              : 23.5 KiB (0%)
  236. Language                                 : Latvian
  237. Default                                  : No
  238. Forced                                   : No

  239. Text #15
  240. ID                                       : 17
  241. Format                                   : UTF-8
  242. Codec ID                                 : S_TEXT/UTF8
  243. Codec ID/Info                            : UTF-8 Plain Text
  244. Duration                                 : 1 h 25 min
  245. Bit rate                                 : 62 b/s
  246. Count of elements                        : 778
  247. Stream size                              : 39.4 KiB (0%)
  248. Language                                 : Macedonian
  249. Default                                  : No
  250. Forced                                   : No

  251. Text #16
  252. ID                                       : 18
  253. Format                                   : UTF-8
  254. Codec ID                                 : S_TEXT/UTF8
  255. Codec ID/Info                            : UTF-8 Plain Text
  256. Duration                                 : 1 h 28 min
  257. Bit rate                                 : 32 b/s
  258. Count of elements                        : 667
  259. Stream size                              : 20.8 KiB (0%)
  260. Language                                 : Dutch
  261. Default                                  : No
  262. Forced                                   : No

  263. Text #17
  264. ID                                       : 19
  265. Format                                   : UTF-8
  266. Codec ID                                 : S_TEXT/UTF8
  267. Codec ID/Info                            : UTF-8 Plain Text
  268. Duration                                 : 1 h 28 min
  269. Bit rate                                 : 35 b/s
  270. Count of elements                        : 770
  271. Stream size                              : 23.0 KiB (0%)
  272. Language                                 : Norwegian
  273. Default                                  : No
  274. Forced                                   : No

  275. Text #18
  276. ID                                       : 20
  277. Format                                   : UTF-8
  278. Codec ID                                 : S_TEXT/UTF8
  279. Codec ID/Info                            : UTF-8 Plain Text
  280. Duration                                 : 1 h 28 min
  281. Bit rate                                 : 31 b/s
  282. Count of elements                        : 749
  283. Stream size                              : 20.3 KiB (0%)
  284. Language                                 : Polish
  285. Default                                  : No
  286. Forced                                   : No

  287. Text #19
  288. ID                                       : 21
  289. Format                                   : UTF-8
  290. Codec ID                                 : S_TEXT/UTF8
  291. Codec ID/Info                            : UTF-8 Plain Text
  292. Duration                                 : 1 h 28 min
  293. Bit rate                                 : 36 b/s
  294. Count of elements                        : 773
  295. Stream size                              : 23.5 KiB (0%)
  296. Title                                    : Brasil
  297. Language                                 : Portuguese
  298. Default                                  : No
  299. Forced                                   : No

  300. Text #20
  301. ID                                       : 22
  302. Format                                   : UTF-8
  303. Codec ID                                 : S_TEXT/UTF8
  304. Codec ID/Info                            : UTF-8 Plain Text
  305. Duration                                 : 1 h 28 min
  306. Bit rate                                 : 37 b/s
  307. Count of elements                        : 771
  308. Stream size                              : 24.0 KiB (0%)
  309. Title                                    : Portugal
  310. Language                                 : Portuguese
  311. Default                                  : No
  312. Forced                                   : No

  313. Text #21
  314. ID                                       : 23
  315. Format                                   : UTF-8
  316. Codec ID                                 : S_TEXT/UTF8
  317. Codec ID/Info                            : UTF-8 Plain Text
  318. Duration                                 : 1 h 28 min
  319. Bit rate                                 : 35 b/s
  320. Count of elements                        : 769
  321. Stream size                              : 22.8 KiB (0%)
  322. Language                                 : Romanian
  323. Default                                  : No
  324. Forced                                   : No

  325. Text #22
  326. ID                                       : 24
  327. Format                                   : UTF-8
  328. Codec ID                                 : S_TEXT/UTF8
  329. Codec ID/Info                            : UTF-8 Plain Text
  330. Duration                                 : 1 h 28 min
  331. Bit rate                                 : 38 b/s
  332. Count of elements                        : 767
  333. Stream size                              : 24.8 KiB (0%)
  334. Language                                 : Slovak
  335. Default                                  : No
  336. Forced                                   : No

  337. Text #23
  338. ID                                       : 25
  339. Format                                   : UTF-8
  340. Codec ID                                 : S_TEXT/UTF8
  341. Codec ID/Info                            : UTF-8 Plain Text
  342. Duration                                 : 1 h 28 min
  343. Bit rate                                 : 32 b/s
  344. Count of elements                        : 773
  345. Stream size                              : 21.0 KiB (0%)
  346. Language                                 : Slovenian
  347. Default                                  : No
  348. Forced                                   : No

  349. Text #24
  350. ID                                       : 26
  351. Format                                   : UTF-8
  352. Codec ID                                 : S_TEXT/UTF8
  353. Codec ID/Info                            : UTF-8 Plain Text
  354. Duration                                 : 1 h 28 min
  355. Bit rate                                 : 35 b/s
  356. Count of elements                        : 772
  357. Stream size                              : 23.0 KiB (0%)
  358. Language                                 : Serbian
  359. Default                                  : No
  360. Forced                                   : No

  361. Text #25
  362. ID                                       : 27
  363. Format                                   : UTF-8
  364. Codec ID                                 : S_TEXT/UTF8
  365. Codec ID/Info                            : UTF-8 Plain Text
  366. Duration                                 : 1 h 28 min
  367. Bit rate                                 : 33 b/s
  368. Count of elements                        : 765
  369. Stream size                              : 21.9 KiB (0%)
  370. Language                                 : Swedish
  371. Default                                  : No
  372. Forced                                   : No

  373. Text #26
  374. ID                                       : 28
  375. Format                                   : UTF-8
  376. Codec ID                                 : S_TEXT/UTF8
  377. Codec ID/Info                            : UTF-8 Plain Text
  378. Duration                                 : 1 h 25 min
  379. Bit rate                                 : 38 b/s
  380. Count of elements                        : 1064
  381. Stream size                              : 24.0 KiB (0%)
  382. Title                                    : 中文(简体)
  383. Language                                 : Chinese
  384. Default                                  : No
  385. Forced                                   : No

  386. Text #27
  387. ID                                       : 29
  388. Format                                   : UTF-8
  389. Codec ID                                 : S_TEXT/UTF8
  390. Codec ID/Info                            : UTF-8 Plain Text
  391. Duration                                 : 1 h 28 min
  392. Bit rate                                 : 37 b/s
  393. Count of elements                        : 940
  394. Stream size                              : 24.4 KiB (0%)
  395. Title                                    : 中文(繁體)
  396. Language                                 : Chinese
  397. Default                                  : No
  398. Forced                                   : No




下载地址:

Kimi.2022.1080p.WEB-DL.DDP5.1.x264-MOMOWEB.torrent

BT9527电影天堂 1、BT9527电影天堂提供的BT文件均来源于互联网抓取,只供网友学习交流、技术提升使用。
2、我们遵守BitTorrent点对点协议原则,任何版权问题请联系原资源发布商,我们不处理任何版权纠纷,谢谢!如有争议请联系邮箱:BT9527#hotmail.com(#换成@)
3、如果您发现某页面或地址有错误,请联系站长邮箱BT9527#hotmail.com(#换成@),我们会尽快处理。您的热心是对BT9527电影天堂最大的支持。
4、本站建议去正规影院观看电影以支持电影行业发展。
最新回复 (0)

你可以在 登录 or 注册 后,对此帖发表评论!

返回
发新帖