船续前行[简繁英字幕].And.the.Ship.Sails.On.1983.BluRay.1080p.LPCM1.0.x265.10bit-DreamHD 18.23GB

版主小s 3月前 171

✔资源类型:暂未分类   ✔电影年份:更 早   ✔电影地区:其他   ✔电影分类:剧情

◎标  题 船续前行
◎译  名 扬帆(台) / 航程 / 与船同行 / 大海航行 / And the Ship Sails On
◎片  名 E la nave va
◎年  代 1983
◎产  地 意大利 / 法国
◎类  别 剧情 / 音乐 / 历史
◎语  言 意大利语 / 德语 / 塞尔维亚语 / 俄语
◎上映日期 1983-10-07(意大利)
◎IMDb评分 7.6/10 (6056人评价)
◎IMDb链接 https://www.imdb.com/title/tt0087188/
◎豆瓣评分 8.3/10 (3342人评价)
◎豆瓣链接 https://movie.douban.com/subject/1303533/
◎片  长 132分钟
◎导  演 费德里科·费里尼 Federico Fellini
◎编  剧 费德里科·费里尼 Federico Fellini
       托尼诺·格拉 Tonino Guerra
◎演  员 弗雷迪·琼斯 Freddie Jones
       芭芭拉·杰夫德 Barbara Jefford
       彼得·塞利尔 Peter Cellier
       伊莉莎·马邑纳德蒂 Elisa Mainardi
       诺玛·韦斯特 Norma West
       保罗·保罗尼 Paolo Paoloni
       萨拉-简·瓦利 Sarah-Jane Varley
       皮娜·鲍什 Pina Bausch
       Philip Locke Philip Locke
       乔纳森·塞西尔 Jonathan Cecil
       莫里斯·巴里埃 Maurice Barrier
       弗莱德.威廉姆斯 Fred Williams
       Elisabeth Kaza Elisabeth Kaza
       Vittorio Zarfati Vittorio Zarfati
       珍妮特·苏兹曼 Janet Suzman
       让·施莱格尔 Jean Schlegel
       Danika La Loggia Danika La Loggia
       Francesco Scali Francesco Scali
       Franco Angrisano Franco Angrisano
       乌戈·方盖勒季 Ugo Fangareggi
       菲德斯·斯塔尼 Fides Stagni
       菲利波·德·加拉 Filippo De Gara
       塞尔瓦托雷·比拉 Salvatore Billa
       弗朗西斯科·马塞利 Francesco Maselli
       多梅尼科·鄂拿博纳 Franco Ressel
       弗朗西斯卡·罗·夏沃 Francesca Lo Schiavo
       玛丽亚-特雷莎·巴巴索 Maria-Teresa Barbasso
       娜扎雷诺皮亚纳 Nazzareno Piana
       Massimo Razzi Massimo Razzi

◎标  签 意大利 / 费里尼 / 费德里科·费里尼 / 1983 / 意大利电影 / 剧情 / FedericoFellini / 1980s

◎简  介
  第一次世界大战爆发前夕,一群欧洲的贵族和艺术家为了护送刚逝世知名歌剧女伶的骨灰回到她出生的小岛,展开了一次航行。不料在途中遇到大战爆发,船上涌进一批难民,在封闭的空间中形成了鲜明的阶级对比。费里尼化身为弗莱迪.琼斯饰演的热心记者,为观众介绍船上形形色色的人生百态,其中犹有些锐利的人性观察,暴露了艺术家伪善的面孔。
  1. ##### MediaInfo ######
  2. General
  3. Unique ID                                : 172839477723058996281217263415578006519 (0x8207AC2DAC315250EA68A4CEB97B13F7)
  4. Complete name                            : And.the.Ship.Sails.On.1983.BluRay.1080p.LPCM1.0.x265.10bit-DreamHD.mkv
  5. Format                                   : Matroska
  6. Format version                           : Version 4
  7. File size                                : 18.2 GiB
  8. Duration                                 : 2 h 9 min
  9. Overall bit rate                         : 20.2 Mb/s
  10. Movie name                               : ESSENTIAL FELLINI - DISC 13
  11. Encoded date                             : UTC 2021-09-22 17:23:03
  12. Writing application                      : mkvmerge v61.0.0.28 ('So') 64-bit
  13. Writing library                          : libebml v1.4.2 + libmatroska v1.6.4
  14. Cover                                    : Yes
  15. Attachments                              : cover.jpg

  16. Video
  17. ID                                       : 1
  18. Format                                   : HEVC
  19. Format/Info                              : High Efficiency Video Coding
  20. Format profile                           : Main 10@L5@Main
  21. Codec ID                                 : V_MPEGH/ISO/HEVC
  22. Duration                                 : 2 h 9 min
  23. Bit rate                                 : 19.0 Mb/s
  24. Width                                    : 1 920 pixels
  25. Height                                   : 1 036 pixels
  26. Display aspect ratio                     : 1.85:1
  27. Frame rate mode                          : Constant
  28. Frame rate                               : 23.976 (23976/1000) FPS
  29. Color space                              : YUV
  30. Chroma subsampling                       : 4:2:0
  31. Bit depth                                : 10 bits
  32. Bits/(Pixel*Frame)                       : 0.398
  33. Stream size                              : 17.2 GiB (94%)
  34. Writing library                          : x265 3.5+13-4c6880de4:[Windows][GCC 11.2.0][64 bit] 10bit
  35. Encoding settings                        : cpuid=1111039 / frame-threads=4 / numa-pools=16 / wpp / no-pmode / no-pme / no-psnr / no-ssim / log-level=2 / input-csp=1 / input-res=1920x1036 / interlace=0 / total-frames=0 / level-idc=0 / high-tier=1 / uhd-bd=0 / ref=6 / no-allow-non-conformance / repeat-headers / annexb / no-aud / no-eob / no-eos / no-hrd / info / hash=0 / no-temporal-layers / no-open-gop / min-keyint=23 / keyint=250 / gop-lookahead=0 / bframes=12 / b-adapt=2 / b-pyramid / bframe-bias=0 / rc-lookahead=60 / lookahead-slices=6 / scenecut=40 / no-hist-scenecut / radl=0 / no-splice / no-intra-refresh / ctu=64 / min-cu-size=8 / rect / amp / max-tu-size=32 / tu-inter-depth=1 / tu-intra-depth=1 / limit-tu=0 / rdoq-level=1 / dynamic-rd=0.00 / no-ssim-rd / signhide / no-tskip / nr-intra=0 / nr-inter=0 / no-constrained-intra / no-strong-intra-smoothing / max-merge=3 / limit-refs=1 / no-limit-modes / me=3 / subme=7 / merange=48 / temporal-mvp / no-frame-dup / hme / Level / merange / L0,L1,L2=24,36,48 / weightp / weightb / no-analyze-src-pics / deblock=0:0 / no-sao / no-sao-non-deblock / rd=4 / selective-sao=0 / early-skip / rskip / no-fast-intra / no-tskip-fast / no-cu-lossless / b-intra / no-splitrd-skip / rdpenalty=0 / psy-rd=1.00 / psy-rdoq=2.00 / no-rd-refine / no-lossless / cbqpoffs=0 / crqpoffs=0 / rc=crf / crf=18.0 / qcomp=0.60 / qpstep=4 / stats-write=0 / stats-read=0 / ipratio=1.40 / pbratio=1.30 / aq-mode=2 / aq-strength=1.00 / cutree / zone-count=0 / no-strict-cbr / qg-size=32 / no-rc-grain / qpmax=69 / qpmin=0 / no-const-vbv / sar=0 / overscan=0 / videoformat=5 / range=0 / colorprim=2 / transfer=2 / colormatrix=2 / chromaloc=0 / display-window=0 / cll=0,0 / min-luma=0 / max-luma=1023 / log2-max-poc-lsb=8 / vui-timing-info / vui-hrd-info / slices=1 / no-opt-qp-pps / no-opt-ref-list-length-pps / no-multi-pass-opt-rps / scenecut-bias=0.05 / hist-threshold=0.03 / no-opt-cu-delta-qp / aq-motion / no-hdr10 / no-hdr10-opt / no-dhdr10-opt / no-idr-recovery-sei / analysis-reuse-level=0 / analysis-save-reuse-level=0 / analysis-load-reuse-level=0 / scale-factor=0 / refine-intra=0 / refine-inter=0 / refine-mv=1 / refine-ctu-distortion=0 / no-limit-sao / ctu-info=0 / no-lowpass-dct / refine-analysis-type=0 / copy-pic=1 / max-ausize-factor=1.0 / no-dynamic-refine / no-single-sei / no-hevc-aq / no-svt / no-field / qp-adaptation-range=1.00 / scenecut-aware-qp=0conformance-window-offsets / right=0 / bottom=0 / decoder-max-rate=0 / no-vbv-live-multi-pass
  36. Default                                  : Yes
  37. Forced                                   : No

  38. Audio
  39. ID                                       : 2
  40. ID in the original source medium         : 4352 (0x1100)
  41. Format                                   : PCM
  42. Format settings                          : Little / Signed
  43. Codec ID                                 : A_PCM/INT/LIT
  44. Duration                                 : 2 h 9 min
  45. Bit rate mode                            : Constant
  46. Bit rate                                 : 1 152 kb/s
  47. Channel(s)                               : 1 channel
  48. Sampling rate                            : 48.0 kHz
  49. Frame rate                               : 200.000 FPS (240 SPF)
  50. Bit depth                                : 24 bits
  51. Stream size                              : 1.04 GiB (6%)
  52. Language                                 : Italian
  53. Default                                  : Yes
  54. Forced                                   : No
  55. Original source medium                   : Blu-ray

  56. Text #1
  57. ID                                       : 3
  58. ID in the original source medium         : 4609 (0x1201)
  59. Format                                   : PGS
  60. Muxing mode                              : zlib
  61. Codec ID                                 : S_HDMV/PGS
  62. Codec ID/Info                            : Picture based subtitle format used on BDs/HD-DVDs
  63. Duration                                 : 2 h 4 min
  64. Bit rate                                 : 20.4 kb/s
  65. Count of elements                        : 1882
  66. Stream size                              : 18.1 MiB (0%)
  67. Title                                    : CHS
  68. Language                                 : Chinese
  69. Default                                  : Yes
  70. Forced                                   : No
  71. Original source medium                   : Blu-ray

  72. Text #2
  73. ID                                       : 4
  74. ID in the original source medium         : 4610 (0x1202)
  75. Format                                   : PGS
  76. Muxing mode                              : zlib
  77. Codec ID                                 : S_HDMV/PGS
  78. Codec ID/Info                            : Picture based subtitle format used on BDs/HD-DVDs
  79. Duration                                 : 2 h 4 min
  80. Bit rate                                 : 21.0 kb/s
  81. Count of elements                        : 1882
  82. Stream size                              : 18.7 MiB (0%)
  83. Title                                    : CHT
  84. Language                                 : Chinese
  85. Default                                  : Yes
  86. Forced                                   : No
  87. Original source medium                   : Blu-ray

  88. Text #3
  89. ID                                       : 5
  90. ID in the original source medium         : 4608 (0x1200)
  91. Format                                   : PGS
  92. Muxing mode                              : zlib
  93. Codec ID                                 : S_HDMV/PGS
  94. Codec ID/Info                            : Picture based subtitle format used on BDs/HD-DVDs
  95. Duration                                 : 2 h 4 min
  96. Bit rate                                 : 43.0 kb/s
  97. Count of elements                        : 2568
  98. Stream size                              : 38.2 MiB (0%)
  99. Title                                    : ENG
  100. Language                                 : English
  101. Default                                  : Yes
  102. Forced                                   : No
  103. Original source medium                   : Blu-ray

  104. Menu
  105. 00:00:00.000                             : 第 01 章
  106. 00:01:30.465                             : 第 02 章
  107. 00:07:31.117                             : 第 03 章
  108. 00:11:43.994                             : 第 04 章
  109. 00:14:58.480                             : 第 05 章
  110. 00:18:01.580                             : 第 06 章
  111. 00:19:49.188                             : 第 07 章
  112. 00:21:10.811                             : 第 08 章
  113. 00:22:13.415                             : 第 09 章
  114. 00:24:39.603                             : 第 10 章
  115. 00:27:50.418                             : 第 11 章
  116. 00:30:30.036                             : 第 12 章
  117. 00:33:07.360                             : 第 13 章
  118. 00:35:34.715                             : 第 14 章
  119. 00:39:03.799                             : 第 15 章
  120. 00:43:23.934                             : 第 16 章
  121. 00:44:24.870                             : 第 17 章
  122. 00:49:09.905                             : 第 18 章
  123. 00:51:11.318                             : 第 19 章
  124. 00:56:52.283                             : 第 20 章
  125. 01:00:30.251                             : 第 21 章
  126. 01:03:56.290                             : 第 22 章
  127. 01:07:25.958                             : 第 23 章
  128. 01:09:47.433                             : 第 24 章
  129. 01:12:11.285                             : 第 25 章
  130. 01:15:57.302                             : 第 26 章
  131. 01:19:55.916                             : 第 27 章
  132. 01:23:37.637                             : 第 28 章
  133. 01:27:10.642                             : 第 29 章
  134. 01:29:35.370                             : 第 30 章
  135. 01:31:35.990                             : 第 31 章
  136. 01:32:43.057                             : 第 32 章
  137. 01:39:36.303                             : 第 33 章
  138. 01:46:54.866                             : 第 34 章
  139. 01:53:27.050                             : 第 35 章
  140. 01:58:14.003                             : 第 36 章
  141. 02:03:37.993                             : 第 37 章
  142. 02:05:23.015                             : 第 38 章


下载地址:

And.the.Ship.Sails.On.1983.BluRay.1080p.LPCM1.0.x265.10bit-DreamHD.torrent

BT9527电影天堂 1、BT9527电影天堂提供的BT文件均来源于互联网抓取,只供网友学习交流、技术提升使用。
2、我们遵守BitTorrent点对点协议原则,任何版权问题请联系原资源发布商,我们不处理任何版权纠纷,谢谢!如有争议请联系邮箱:BT9527#hotmail.com(#换成@)
3、如果您发现某页面或地址有错误,请联系站长邮箱BT9527#hotmail.com(#换成@),我们会尽快处理。您的热心是对BT9527电影天堂最大的支持。
4、本站建议去正规影院观看电影以支持电影行业发展。
最新回复 (0)

你可以在 登录 or 注册 后,对此帖发表评论!

返回
发新帖