秋刀鱼之味[中文字幕].An.Autumn.Afternoon.1962.CC.BluRay.1080p.LPCM.1.0.x265.10bit-DreamHD 9.71GB

版主小s 9月前 455

✔资源类型:暂未分类   ✔电影年份:更 早   ✔电影地区:日本   ✔电影分类:剧情

◎标  题 秋刀鱼之味
◎译  名 一个秋天的下午 / 秋刀鱼的味道 / An Autumn Afternoon / The Taste of Saury / Sanma no aji
◎片  名 秋刀魚の味
◎年  代 1962
◎产  地 日本
◎类  别 剧情 / 家庭
◎语  言 日语
◎上映日期 1962-11-18(日本)
◎IMDb评分 8.1/10 (8753人评价)
◎IMDb链接 https://www.imdb.com/title/tt0056444/
◎豆瓣评分 8.7/10 (38058人评价)
◎豆瓣链接 https://movie.douban.com/subject/1294433/
◎片  长 113分钟
◎导  演 小津安二郎 Yasujirô Ozu
◎编  剧 野田高梧 Kôgo Noda
       小津安二郎 Yasujirô Ozu
◎演  员 笠智众 Chishû Ryû
       岩下志麻 Shima Iwashita
       冈田茉莉子 Mariko Okada
       佐田启二 Keiji Sada
       三上真一郎 Shinichirô Mikami
       吉田辉雄 Yoshida Teruo
       岸田今日子 Kyôko Kishida
       杉村春子 Haruko Sugimura
       中村伸郎 Nobuo Nakamura
       北龙二 Ryûji Kita
       志贺真津子 Matsuko Shiga
       高桥丰子 Toyo Takahashi
       东野英治郎 Eijirô Tôno
       加东大介 Daisuke Katô
       织田政雄 Masao Oda
       厚田雄春 Yûharu Atsuta
       滨田辰雄 Tatsuo Hamada

◎标  签 小津安二郎 / 日本 / 日本电影 / 家庭 / 秋刀鱼之味 / 经典 / 1962 / 剧情

◎简  介
  妻子去世多年,寡言的山平(笠智众)已习惯被待嫁的女儿道子(岩下志麻)贴心照料的生活。道子表面看来也乐意将老父亲照料,从没流露嫁人的渴望。                                    
                                山平老年乐事是与中学时代的几个老友饮酒叙谈,席间友人每谈及道子的婚事、表示要同她介绍对象,山平总会含糊其辞地拒绝,但怕面对什么,他也并不能想清。不过每次饮酒他都会适可而止,以避免酒醉给道子带来太多麻烦。                                    
                                这日中学同窗聚会,山平得知老师当年漂亮的女儿为将他照顾至今未嫁,后送醉酒的老师归家,见漂亮人儿今已衰老憔悴,他心里一惊,想到道子。其后,他示意道子考虑婚姻大事,道子却理解为父亲在赶她出门悲伤不已,他好言相劝她方含泪点头。道子答应一刻,他又心生无限酸楚。
  1. ##### MediaInfo ######
  2. General
  3. Unique ID                                : 312315760205978613613896269363581410960 (0xEAF5D3D4F959E4F4CEAB8C0D90E9DE90)
  4. Complete name                            : An.Autumn.Afternoon.1962.CC.BluRay.1080p.LPCM.1.0.x265.10bit-DreamHD.mkv
  5. Format                                   : Matroska
  6. Format version                           : Version 4
  7. File size                                : 9.71 GiB
  8. Duration                                 : 1 h 53 min
  9. Overall bit rate                         : 12.2 Mb/s
  10. Encoded date                             : UTC 2021-01-17 05:14:45
  11. Writing application                      : mkvmerge v51.0.0 ('I Wish') 64-bit
  12. Writing library                          : libebml v1.4.0 + libmatroska v1.6.2

  13. Video
  14. ID                                       : 1
  15. Format                                   : HEVC
  16. Format/Info                              : High Efficiency Video Coding
  17. Format profile                           : Main 10@L5.1@High
  18. Codec ID                                 : V_MPEGH/ISO/HEVC
  19. Duration                                 : 1 h 53 min
  20. Bit rate                                 : 10.9 Mb/s
  21. Width                                    : 1 480 pixels
  22. Height                                   : 1 080 pixels
  23. Display aspect ratio                     : 1.370
  24. Frame rate mode                          : Constant
  25. Frame rate                               : 23.976 (24000/1001) FPS
  26. Color space                              : YUV
  27. Chroma subsampling                       : 4:2:0
  28. Bit depth                                : 10 bits
  29. Bits/(Pixel*Frame)                       : 0.283
  30. Stream size                              : 8.61 GiB (89%)
  31. Writing library                          : x265 3.4+33-606265ac7:[Windows][GCC 10.2.1][64 bit] 10bit
  32. Encoding settings                        : cpuid=1111039 / frame-threads=5 / numa-pools=32 / wpp / pmode / pme / no-psnr / no-ssim / log-level=2 / input-csp=1 / input-res=1480x1080 / interlace=0 / total-frames=163407 / level-idc=51 / high-tier=1 / uhd-bd=0 / ref=6 / no-allow-non-conformance / repeat-headers / annexb / no-aud / no-hrd / info / hash=0 / no-temporal-layers / no-open-gop / min-keyint=23 / keyint=250 / gop-lookahead=0 / bframes=8 / b-adapt=2 / b-pyramid / bframe-bias=0 / rc-lookahead=60 / lookahead-slices=6 / scenecut=40 / hist-scenecut=0 / radl=0 / no-splice / no-intra-refresh / ctu=32 / min-cu-size=8 / no-rect / no-amp / max-tu-size=32 / tu-inter-depth=4 / tu-intra-depth=4 / limit-tu=0 / rdoq-level=0 / dynamic-rd=0.00 / no-ssim-rd / signhide / no-tskip / nr-intra=0 / nr-inter=0 / no-constrained-intra / strong-intra-smoothing / max-merge=3 / limit-refs=1 / no-limit-modes / me=2 / subme=7 / merange=48 / temporal-mvp / no-frame-dup / no-hme / weightp / weightb / no-analyze-src-pics / deblock=0:0 / no-sao / no-sao-non-deblock / rd=4 / selective-sao=0 / early-skip / rskip / no-fast-intra / no-tskip-fast / no-cu-lossless / b-intra / no-splitrd-skip / rdpenalty=1 / psy-rd=2.00 / psy-rdoq=0.00 / no-rd-refine / no-lossless / cbqpoffs=0 / crqpoffs=0 / rc=crf / crf=21.6 / qcomp=0.65 / qpstep=4 / stats-write=0 / stats-read=0 / vbv-maxrate=160000 / vbv-bufsize=160000 / vbv-init=0.9 / min-vbv-fullness=50.0 / max-vbv-fullness=80.0 / crf-max=0.0 / crf-min=0.0 / ipratio=1.40 / pbratio=1.20 / aq-mode=3 / aq-strength=0.90 / cutree / zone-count=0 / no-strict-cbr / qg-size=32 / no-rc-grain / qpmax=69 / qpmin=0 / no-const-vbv / sar=0 / overscan=0 / videoformat=5 / range=0 / colorprim=1 / transfer=1 / colormatrix=1 / chromaloc=0 / display-window=0 / cll=0,0 / min-luma=0 / max-luma=1023 / log2-max-poc-lsb=8 / vui-timing-info / vui-hrd-info / slices=1 / no-opt-qp-pps / no-opt-ref-list-length-pps / no-multi-pass-opt-rps / scenecut-bias=0.05 / hist-threshold=0.03 / no-opt-cu-delta-qp / no-aq-motion / no-hdr10 / no-hdr10-opt / no-dhdr10-opt / no-idr-recovery-sei / analysis-reuse-level=0 / analysis-save-reuse-level=0 / analysis-load-reuse-level=0 / scale-factor=0 / refine-intra=0 / refine-inter=0 / refine-mv=1 / refine-ctu-distortion=0 / no-limit-sao / ctu-info=0 / no-lowpass-dct / refine-analysis-type=0 / copy-pic=1 / max-ausize-factor=1.0 / no-dynamic-refine / no-single-sei / no-hevc-aq / no-svt / no-field / qp-adaptation-range=1.00 / scenecut-aware-qp=0conformance-window-offsets / right=0 / bottom=0 / decoder-max-rate=0 / no-vbv-live-multi-pass
  33. Default                                  : Yes
  34. Forced                                   : No
  35. Color range                              : Limited
  36. Color primaries                          : BT.709
  37. Transfer characteristics                 : BT.709
  38. Matrix coefficients                      : BT.709

  39. Audio #1
  40. ID                                       : 2
  41. ID in the original source medium         : 4352 (0x1100)
  42. Format                                   : PCM
  43. Format settings                          : Little / Signed
  44. Codec ID                                 : A_PCM/INT/LIT
  45. Duration                                 : 1 h 53 min
  46. Bit rate mode                            : Constant
  47. Bit rate                                 : 1 152 kb/s
  48. Channel(s)                               : 1 channel
  49. Sampling rate                            : 48.0 kHz
  50. Frame rate                               : 200.000 FPS (240 SPF)
  51. Bit depth                                : 24 bits
  52. Stream size                              : 936 MiB (9%)
  53. Language                                 : Japanese
  54. Default                                  : Yes
  55. Forced                                   : No
  56. Original source medium                   : Blu-ray

  57. Audio #2
  58. ID                                       : 3
  59. ID in the original source medium         : 4353 (0x1101)
  60. Format                                   : AC-3
  61. Format/Info                              : Audio Coding 3
  62. Commercial name                          : Dolby Digital
  63. Codec ID                                 : A_AC3
  64. Duration                                 : 1 h 53 min
  65. Bit rate mode                            : Constant
  66. Bit rate                                 : 192 kb/s
  67. Channel(s)                               : 1 channel
  68. Channel layout                           : C
  69. Sampling rate                            : 48.0 kHz
  70. Frame rate                               : 31.250 FPS (1536 SPF)
  71. Compression mode                         : Lossy
  72. Stream size                              : 156 MiB (2%)
  73. Language                                 : English
  74. Service kind                             : Complete Main
  75. Default                                  : No
  76. Forced                                   : No
  77. Original source medium                   : Blu-ray

  78. Text #1
  79. ID                                       : 4
  80. ID in the original source medium         : 4608 (0x1200)
  81. Format                                   : PGS
  82. Muxing mode                              : zlib
  83. Codec ID                                 : S_HDMV/PGS
  84. Codec ID/Info                            : Picture based subtitle format used on BDs/HD-DVDs
  85. Duration                                 : 1 h 52 min
  86. Bit rate                                 : 35.6 kb/s
  87. Count of elements                        : 2610
  88. Stream size                              : 28.7 MiB (0%)
  89. Language                                 : English
  90. Default                                  : Yes
  91. Forced                                   : No
  92. Original source medium                   : Blu-ray

  93. Text #2
  94. ID                                       : 5
  95. ID in the original source medium         : 4609 (0x1201)
  96. Format                                   : PGS
  97. Muxing mode                              : zlib
  98. Codec ID                                 : S_HDMV/PGS
  99. Codec ID/Info                            : Picture based subtitle format used on BDs/HD-DVDs
  100. Duration                                 : 1 h 51 min
  101. Bit rate                                 : 32.1 kb/s
  102. Count of elements                        : 2853
  103. Stream size                              : 25.6 MiB (0%)
  104. Language                                 : Chinese
  105. Default                                  : No
  106. Forced                                   : No
  107. Original source medium                   : Blu-ray

  108. Text #3
  109. ID                                       : 6
  110. ID in the original source medium         : 4610 (0x1202)
  111. Format                                   : PGS
  112. Muxing mode                              : zlib
  113. Codec ID                                 : S_HDMV/PGS
  114. Codec ID/Info                            : Picture based subtitle format used on BDs/HD-DVDs
  115. Duration                                 : 1 h 51 min
  116. Bit rate                                 : 31.8 kb/s
  117. Count of elements                        : 2853
  118. Stream size                              : 25.3 MiB (0%)
  119. Language                                 : Chinese
  120. Default                                  : No
  121. Forced                                   : No
  122. Original source medium                   : Blu-ray

  123. Menu
  124. 00:00:00.000                             : en:Chapter 01
  125. 00:06:23.674                             : en:Chapter 02
  126. 00:13:35.439                             : en:Chapter 03
  127. 00:18:30.901                             : en:Chapter 04
  128. 00:20:29.436                             : en:Chapter 05
  129. 00:30:37.168                             : en:Chapter 06
  130. 00:34:36.365                             : en:Chapter 07
  131. 00:39:58.312                             : en:Chapter 08
  132. 00:45:04.702                             : en:Chapter 09
  133. 00:47:52.995                             : en:Chapter 10
  134. 00:51:29.669                             : en:Chapter 11
  135. 01:01:04.327                             : en:Chapter 12
  136. 01:09:51.478                             : en:Chapter 13
  137. 01:15:58.887                             : en:Chapter 14
  138. 01:22:37.410                             : en:Chapter 15
  139. 01:26:33.688                             : en:Chapter 16
  140. 01:31:15.887                             : en:Chapter 17
  141. 01:35:50.327                             : en:Chapter 18
  142. 01:40:21.807                             : en:Chapter 19
  143. 01:47:08.547                             : en:Chapter 20




下载地址:

An.Autumn.Afternoon.1962.CC.BluRay.1080p.LPCM.1.0.x265.10bit-DreamHD.torrent

BT9527电影天堂 1、BT9527电影天堂提供的BT文件均来源于互联网抓取,只供网友学习交流、技术提升使用。
2、我们遵守BitTorrent点对点协议原则,任何版权问题请联系原资源发布商,我们不处理任何版权纠纷,谢谢!如有争议请联系邮箱:BT9527#hotmail.com(#换成@)
3、如果您发现某页面或地址有错误,请联系站长邮箱BT9527#hotmail.com(#换成@),我们会尽快处理。您的热心是对BT9527电影天堂最大的支持。
4、本站建议去正规影院观看电影以支持电影行业发展。
最新回复 (0)

你可以在 登录 or 注册 后,对此帖发表评论!

返回