英伦琵琶[国语配音/中文字幕].Banana.Cop.1984.Bluray.1080p.TrueHD.5.1.x265.10bit-DreamHD 7.98GB

版主小s 3月前 269

✔资源类型:暂未分类   ✔电影年份:更 早   ✔电影地区:香港   ✔电影分类:剧情

◎标  题 英伦琵琶
◎译  名 Banana Cop
◎片  名 英倫琵琶
◎年  代 1984
◎产  地 中国香港
◎类  别 剧情 / 喜剧
◎语  言 粤语
◎上映日期 1984-09-08
◎IMDb评分 6.2/10 (48人评价)
◎IMDb链接 https://www.imdb.com/title/tt0088431/
◎豆瓣评分 6.6/10 (678人评价)
◎豆瓣链接 https://movie.douban.com/subject/1294779/
◎片  长 Canada: 90 分钟
◎导  演 梁普智 Po-Chih Leong
◎编  剧 潘源良 Yuen-Leung Poon
◎演  员 林子祥 George Lam
       钟楚红 Cherie Chung
       泰迪·罗宾 Teddy Robin
       肯·博伊尔 Ken Boyle
       楼南光 Billy Lau
       林敏怡 Man Yee Lam
       施南生 Nansun Shi

◎简  介
  伦敦唐人街一赌场遭独行杀手突袭,两东主当场遇害,当地华裔帮板Edward叶查出东主契侄“超短波”仇家甚多,经已避返香港,怀疑此案事出寻仇,于是往香港追查……
  1. ##### MediaInfo ######
  2. General
  3. Unique ID                                : 113440560926800028681562291862501965075 (0x5557DB794DCD812B9F9111973709BD13)
  4. Complete name                            : Banana.Cop.1984.Bluray.1080p.TrueHD.5.1.x265.10bit-DreamHD.mkv
  5. Format                                   : Matroska
  6. Format version                           : Version 4
  7. File size                                : 7.98 GiB
  8. Duration                                 : 1 h 36 min
  9. Overall bit rate mode                    : Variable
  10. Overall bit rate                         : 11.8 Mb/s
  11. Encoded date                             : UTC 2021-04-03 18:57:26
  12. Writing application                      : mkvmerge v51.0.0 ('I Wish') 64-bit
  13. Writing library                          : libebml v1.4.0 + libmatroska v1.6.2

  14. Video
  15. ID                                       : 1
  16. Format                                   : HEVC
  17. Format/Info                              : High Efficiency Video Coding
  18. Format profile                           : Main 10@L5@Main
  19. Codec ID                                 : V_MPEGH/ISO/HEVC
  20. Duration                                 : 1 h 36 min
  21. Bit rate                                 : 5 335 kb/s
  22. Width                                    : 1 888 pixels
  23. Height                                   : 1 016 pixels
  24. Display aspect ratio                     : 1.85:1
  25. Frame rate mode                          : Constant
  26. Frame rate                               : 23.976 (24000/1001) FPS
  27. Original frame rate                      : 23.976 (23976/1000) FPS
  28. Color space                              : YUV
  29. Chroma subsampling                       : 4:2:0
  30. Bit depth                                : 10 bits
  31. Bits/(Pixel*Frame)                       : 0.116
  32. Stream size                              : 3.61 GiB (45%)
  33. Writing library                          : x265 3.4+26-ga82c6c7a7:[Windows][MSVC 1927][64 bit] 10bit
  34. Encoding settings                        : cpuid=1111039 / frame-threads=5 / numa-pools=36,36 / wpp / no-pmode / no-pme / no-psnr / no-ssim / log-level=2 / input-csp=1 / input-res=1888x1016 / interlace=0 / total-frames=0 / level-idc=0 / high-tier=1 / uhd-bd=0 / ref=6 / no-allow-non-conformance / repeat-headers / annexb / no-aud / no-hrd / info / hash=0 / no-temporal-layers / no-open-gop / min-keyint=23 / keyint=250 / gop-lookahead=0 / bframes=8 / b-adapt=2 / b-pyramid / bframe-bias=0 / rc-lookahead=24 / lookahead-slices=6 / scenecut=40 / hist-scenecut=0 / radl=0 / no-splice / no-intra-refresh / ctu=64 / min-cu-size=8 / no-rect / no-amp / max-tu-size=32 / tu-inter-depth=1 / tu-intra-depth=1 / limit-tu=0 / rdoq-level=0 / dynamic-rd=0.00 / no-ssim-rd / signhide / no-tskip / nr-intra=0 / nr-inter=0 / no-constrained-intra / no-strong-intra-smoothing / max-merge=3 / limit-refs=1 / no-limit-modes / me=2 / subme=7 / merange=48 / temporal-mvp / no-frame-dup / no-hme / weightp / weightb / no-analyze-src-pics / deblock=0:0 / sao / no-sao-non-deblock / rd=4 / selective-sao=4 / early-skip / rskip / no-fast-intra / no-tskip-fast / no-cu-lossless / b-intra / no-splitrd-skip / rdpenalty=0 / psy-rd=2.00 / psy-rdoq=0.00 / no-rd-refine / no-lossless / cbqpoffs=0 / crqpoffs=0 / rc=crf / crf=15.0 / qcomp=0.60 / qpstep=4 / stats-write=0 / stats-read=0 / ipratio=1.40 / pbratio=1.30 / aq-mode=3 / aq-strength=1.00 / cutree / zone-count=0 / no-strict-cbr / qg-size=32 / no-rc-grain / qpmax=69 / qpmin=0 / no-const-vbv / sar=0 / overscan=0 / videoformat=5 / range=0 / colorprim=2 / transfer=2 / colormatrix=2 / chromaloc=0 / display-window=0 / cll=0,0 / min-luma=0 / max-luma=1023 / log2-max-poc-lsb=8 / vui-timing-info / vui-hrd-info / slices=1 / no-opt-qp-pps / no-opt-ref-list-length-pps / no-multi-pass-opt-rps / scenecut-bias=0.05 / hist-threshold=0.03 / no-opt-cu-delta-qp / aq-motion / no-hdr10 / no-hdr10-opt / no-dhdr10-opt / no-idr-recovery-sei / analysis-reuse-level=0 / analysis-save-reuse-level=0 / analysis-load-reuse-level=0 / scale-factor=0 / refine-intra=0 / refine-inter=0 / refine-mv=1 / refine-ctu-distortion=0 / no-limit-sao / ctu-info=0 / no-lowpass-dct / refine-analysis-type=0 / copy-pic=1 / max-ausize-factor=1.0 / no-dynamic-refine / no-single-sei / hevc-aq / no-svt / no-field / qp-adaptation-range=1.00 / no-scenecut-aware-qpconformance-window-offsets / right=0 / bottom=0 / decoder-max-rate=0 / no-vbv-live-multi-pass
  35. Default                                  : Yes
  36. Forced                                   : No

  37. Audio #1
  38. ID                                       : 2
  39. Format                                   : MLP FBA
  40. Format/Info                              : Meridian Lossless Packing FBA
  41. Commercial name                          : Dolby TrueHD
  42. Codec ID                                 : A_TRUEHD
  43. Duration                                 : 1 h 36 min
  44. Bit rate mode                            : Variable
  45. Bit rate                                 : 3 151 kb/s
  46. Maximum bit rate                         : 4 608 kb/s
  47. Channel(s)                               : 6 channels
  48. Channel layout                           : L R C LFE Ls Rs
  49. Sampling rate                            : 96.0 kHz
  50. Frame rate                               : 1 200.000 FPS (80 SPF)
  51. Compression mode                         : Lossless
  52. Stream size                              : 2.13 GiB (27%)
  53. Default                                  : Yes
  54. Forced                                   : No

  55. Audio #2
  56. ID                                       : 3
  57. Format                                   : MLP FBA
  58. Format/Info                              : Meridian Lossless Packing FBA
  59. Commercial name                          : Dolby TrueHD
  60. Codec ID                                 : A_TRUEHD
  61. Duration                                 : 1 h 36 min
  62. Bit rate mode                            : Variable
  63. Bit rate                                 : 3 151 kb/s
  64. Maximum bit rate                         : 4 506 kb/s
  65. Channel(s)                               : 6 channels
  66. Channel layout                           : L R C LFE Ls Rs
  67. Sampling rate                            : 96.0 kHz
  68. Frame rate                               : 1 200.000 FPS (80 SPF)
  69. Compression mode                         : Lossless
  70. Stream size                              : 2.13 GiB (27%)
  71. Default                                  : No
  72. Forced                                   : No

  73. Text #1
  74. ID                                       : 4
  75. Format                                   : PGS
  76. Muxing mode                              : zlib
  77. Codec ID                                 : S_HDMV/PGS
  78. Codec ID/Info                            : Picture based subtitle format used on BDs/HD-DVDs
  79. Duration                                 : 1 h 33 min
  80. Bit rate                                 : 23.0 kb/s
  81. Count of elements                        : 1659
  82. Stream size                              : 15.5 MiB (0%)
  83. Language                                 : Chinese
  84. Default                                  : Yes
  85. Forced                                   : No

  86. Text #2
  87. ID                                       : 5
  88. Format                                   : PGS
  89. Muxing mode                              : zlib
  90. Codec ID                                 : S_HDMV/PGS
  91. Codec ID/Info                            : Picture based subtitle format used on BDs/HD-DVDs
  92. Duration                                 : 1 h 32 min
  93. Bit rate                                 : 23.8 kb/s
  94. Count of elements                        : 1651
  95. Stream size                              : 15.7 MiB (0%)
  96. Language                                 : Chinese
  97. Default                                  : No
  98. Forced                                   : No

  99. Text #3
  100. ID                                       : 6
  101. Format                                   : PGS
  102. Muxing mode                              : zlib
  103. Codec ID                                 : S_HDMV/PGS
  104. Codec ID/Info                            : Picture based subtitle format used on BDs/HD-DVDs
  105. Duration                                 : 1 h 32 min
  106. Bit rate                                 : 25.4 kb/s
  107. Count of elements                        : 1651
  108. Stream size                              : 16.8 MiB (0%)
  109. Language                                 : English
  110. Default                                  : No
  111. Forced                                   : No

  112. Menu
  113. 00:00:00.000                             : en:绗?01 绔?
  114. 00:09:09.007                             : en:绗?02 绔?
  115. 00:14:06.054                             : en:绗?03 绔?
  116. 00:24:07.071                             : en:绗?04 绔?
  117. 00:36:25.350                             : en:绗?05 绔?
  118. 00:47:18.627                             : en:绗?06 绔?
  119. 00:57:17.768                             : en:绗?07 绔?
  120. 01:04:00.503                             : en:绗?08 绔?
  121. 01:09:46.307                             : en:绗?09 绔?
  122. 01:16:48.395                             : en:绗?10 绔?
  123. 01:22:44.001                             : en:绗?11 绔?
  124. 01:30:57.661                             : en:绗?12 绔?




下载地址:

Banana.Cop.1984.Bluray.1080p.TrueHD.5.1.x265.10bit-DreamHD.torrent

BT9527电影天堂 1、BT9527电影天堂提供的BT文件均来源于互联网抓取,只供网友学习交流、技术提升使用。
2、我们遵守BitTorrent点对点协议原则,任何版权问题请联系原资源发布商,我们不处理任何版权纠纷,谢谢!如有争议请联系邮箱:BT9527#hotmail.com(#换成@)
3、如果您发现某页面或地址有错误,请联系站长邮箱BT9527#hotmail.com(#换成@),我们会尽快处理。您的热心是对BT9527电影天堂最大的支持。
4、本站建议去正规影院观看电影以支持电影行业发展。
最新回复 (0)

你可以在 登录 or 注册 后,对此帖发表评论!

返回
发新帖